<?xml version="1.0" standalone="no"?>
<!DOCTYPE svg PUBLIC "-//W3C//DTD SVG 1.1//EN" "http://www.w3.org/Graphics/SVG/1.1/DTD/svg11.dtd">
<svg xmlns="http://www.w3.org/2000/svg">
<metadata>Copyright (C) 2017 by original authors @ fontello.com</metadata>
<defs>
<font id="entypo" horiz-adv-x="1000" >
<font-face font-family="entypo" font-weight="400" font-stretch="normal" units-per-em="1000" ascent="850" descent="-150" />
<missing-glyph horiz-adv-x="1000" />
<glyph glyph-name="add-to-list" unicode="&#xe800;" d="M970 400h-170v170c0 30-20 30-50 30s-50 0-50-30v-170h-170c-30 0-30-20-30-50s0-50 30-50h170v-170c0-30 20-30 50-30s50 0 50 30v170h170c30 0 30 20 30 50s0 50-30 50z m-600 0h-340c-30 0-30-20-30-50s0-50 30-50h340c30 0 30 20 30 50s0 50-30 50z m0-250h-340c-30 0-30-20-30-50s0-50 30-50h340c30 0 30 20 30 50s0 50-30 50z m0 500h-340c-30 0-30-20-30-50s0-50 30-50h340c30 0 30 20 30 50s0 50-30 50z" horiz-adv-x="1000" />

<glyph glyph-name="add-user" unicode="&#xe801;" d="M800-107c0 107-110 170-216 216-107 46-140 84-140 167 0 49 32 33 46 124 6 37 35 0 40 86 0 34-15 43-15 43s8 51 11 90c3 40-20 128-115 154-17 17-28 44 23 71-112 6-138-53-198-96-50-38-64-98-62-130 4-39 11-89 11-89s-15-9-15-43c5-86 34-49 40-86 14-91 47-75 47-124 0-83-11-111-117-157-107-45-140-119-139-226 0-31-1-43-1-43h800c0 0-1 12 0 43z m50 457v150h-100v-150h-150v-100h150v-150h100v150h150v100h-150z" horiz-adv-x="1000" />

<glyph glyph-name="address" unicode="&#xe802;" d="M990 592l-119 91c-7 5-16 9-26 12-10 3-20 5-28 5h-342l40-250h302c8 0 18 2 28 5s19 7 26 12l119 91c7 5 10 11 10 17s-3 12-10 17z m-565 208h-50c-14 0-25-11-25-25v-175h-167c-8 0-18-2-28-5-10-3-19-7-26-12l-119-91c-7-5-10-11-10-17 0-6 3-12 10-17l119-91c7-5 16-9 26-12 10-3 20-5 28-5h167v-425c0-14 11-25 25-25h50c14 0 25 11 25 25v850c0 14-11 25-25 25z" horiz-adv-x="1000" />

<glyph glyph-name="adjust" unicode="&#xe803;" d="M950 390c-9 0-40 0-49 0-28 0-50-18-50-40 0-22 22-40 50-40 9 0 40 0 49 0 28 0 50 18 50 40 0 22-22 40-50 40z m-450 235c-153 0-275-122-275-275 0-152 122-275 275-275 153 0 275 123 275 275 0 153-123 275-275 275z m0-475c-111 0-200 90-200 200 0 111 89 200 200 200v-400z m-350 200c0 22-22 40-50 40-9 0-41 0-50 0-28 0-50-18-50-40 0-22 22-40 50-40 9 0 41 0 50 0 28 0 50 18 50 40z m350 350c22 0 40 22 40 50 0 9 0 41 0 50 0 28-18 50-40 50-22 0-40-22-40-50 0-9 0-41 0-50 0-28 18-50 40-50z m0-700c-22 0-40-22-40-50 0-9 0-41 0-50 0-28 18-50 40-50 22 0 40 22 40 50 0 9 0 41 0 50 0 28-18 50-40 50z m368 662c20 19 23 48 7 63s-44 13-63-7c-6-5-30-29-35-35-20-19-23-48-7-63s44-13 63 7c6 5 30 29 35 35z m-701-589c-6-5-30-29-35-35-20-19-23-48-7-63s44-13 63 7c6 5 30 29 35 35 20 19 23 48 7 64s-44 12-63-8z m21 645c-19 20-48 23-63 7s-13-44 7-63c5-6 29-30 35-35 19-20 48-23 63-7s13 44-7 63c-5 6-29 30-35 35z m589-701c5-6 29-30 35-35 19-20 48-23 63-7 16 15 13 44-7 63-5 6-29 30-35 35-19 20-48 23-63 7s-13-44 7-63z" horiz-adv-x="1000" />

<glyph glyph-name="air" unicode="&#xe804;" d="M132 532c88 75 157 134 344 29 90-51 162-70 223-70 105 0 174 59 233 109 21 19 24 51 6 72-18 22-49 25-70 7-87-75-157-135-344-29-247 140-363 40-456-40-21-18-24-50-6-72 18-21 49-24 70-6z m736-109c-87-75-157-134-344-28-247 140-363 40-456-40-21-18-24-50-6-72 18-22 49-24 70-6 88 75 157 134 344 28 90-50 162-70 223-70 105 0 174 59 233 110 21 18 24 51 6 72-18 22-49 24-70 6z m0-255c-87-75-157-134-344-29-247 140-363 41-456-39-21-18-24-51-6-72 18-22 49-25 70-6 88 75 157 134 344 28 90-51 162-70 223-70 105 0 174 59 233 110 21 18 24 50 6 72-18 21-49 24-70 6z" horiz-adv-x="1000" />

<glyph glyph-name="aircraft-landing" unicode="&#xe805;" d="M938 48c-5-13-41-50-302 44l-255 92c-89 32-214 83-263 111-34 20-42 64-42 64s-8 148-13 184c-5 37 5 43 40 25 22-11 93-128 123-178 76-19 143-38 175-48-13 86-37 247-46 297-8 48 28 27 28 27 16-10 49-34 60-51 76-116 184-330 192-346 45-14 114-37 155-51 108-39 154-152 148-170z" horiz-adv-x="1000" />

<glyph glyph-name="aircraft-take-off" unicode="&#xe806;" d="M994 527c6-12 6-64-245-182l-245-115c-86-40-210-93-265-108-38-10-74 16-74 16s-111 99-140 121c-29 22-27 34 11 46 23 7 156-25 213-39 67 40 128 74 157 90-70 51-200 148-242 177-40 28 1 39 1 39 18 4 58 11 78 7 136-29 363-104 380-110 42 22 107 55 146 74 104 48 217 1 225-16z" horiz-adv-x="1000" />

<glyph glyph-name="aircraft" unicode="&#xe807;" d="M625-21c-20 55-90 239-120 315-55-37-116-72-175-96-19-64-55-186-73-202-30-28-41-24-46 14-4 38-24 162-24 162s-108 61-142 78-33 30 3 49c21 11 146 4 212 0 43 47 96 94 150 134-61 53-208 183-252 221-39 33 4 40 4 40 19 3 61 6 81 0 126-38 322-103 368-119 18 13 37 26 58 41 236 167 295 130 306 114s25-85-210-252c-21-15-40-28-58-41-1-49-8-257-16-390-1-22-18-60-28-78 0 0-21-38-38 10z" horiz-adv-x="1000" />

<glyph glyph-name="align-bottom" unicode="&#xe808;" d="M650 300h-100v400h-100v-400h-100l150-150 150 150z m220-200h-740c-28 0-30-22-30-50 0-28 2-50 30-50h740c28 0 30 22 30 50 0 28-2 50-30 50z" horiz-adv-x="1000" />

<glyph glyph-name="align-horizontal-middle" unicode="&#xe809;" d="M400 350l-150 150v-100h-200v-100h200v-100l150 150z m350-150v100h200v100h-200v100l-150-150 150-150z m-250-250c28 0 50 2 50 30v740c0 28-22 30-50 30-28 0-50-2-50-30v-740c0-28 22-30 50-30z" horiz-adv-x="1000" />

<glyph glyph-name="align-left" unicode="&#xe80a;" d="M300 350l150-150v100h400v100h-400v100l-150-150z m-100 400c-28 0-50-2-50-30v-740c0-28 22-30 50-30 28 0 50 2 50 30v740c0 28-22 30-50 30z" horiz-adv-x="1000" />

<glyph glyph-name="align-right" unicode="&#xe80b;" d="M550 500v-100h-400v-100h400v-100l150 150-150 150z m200 220v-740c0-28 22-30 50-30 28 0 50 2 50 30v740c0 28-22 30-50 30-28 0-50-2-50-30z" horiz-adv-x="1000" />

<glyph glyph-name="align-top" unicode="&#xe80c;" d="M500 550l-150-150h100v-400h100v400h100l-150 150z m400 100c0 28-2 50-30 50h-740c-28 0-30-22-30-50 0-28 2-50 30-50h740c28 0 30 22 30 50z" horiz-adv-x="1000" />

<glyph glyph-name="align-vertical-middle" unicode="&#xe80d;" d="M500 250l-150-150h100v-200h100v200h100l-150 150z m150 350h-100v200h-100v-200h-100l150-150 150 150z m250-250c0 28-2 50-30 50h-740c-28 0-30-22-30-50 0-27 2-50 30-50h740c28 0 30 23 30 50z" horiz-adv-x="1000" />

<glyph glyph-name="archive" unicode="&#xe80e;" d="M699 750h-398c0 0-50 0-50-50h498c0 50-50 50-50 50z m149-150c0 50-49 50-49 50h-598c0 0-49 0-49-50v-50h696v50z m100-50c-29 30-29 30-29 30v-80h-837v80c0 0 0 0-30-30-29-30-50-37-39-100 12-62 69-404 78-450 9-51 61-50 61-50h697c0 0 51-1 60 50 9 46 66 388 78 450 12 63-10 70-39 100z m-248-300c0-27-22-50-50-50h-300c-28 0-50 23-50 50v100h50v-100h300v100h50v-100z" horiz-adv-x="1000" />

<glyph glyph-name="area-graph" unicode="&#xe80f;" d="M1000 750v-800h-984c-16 0-21 10-11 23l224 288c10 13 27 14 39 3l71-67c12-11 29-9 37 5l153 237c9 14 25 16 37 4l108-104c12-12 28-9 37 5l256 389c9 14 21 17 33 17z" horiz-adv-x="1000" />

<glyph glyph-name="arrow-bold-down" unicode="&#xe810;" d="M125 350h175v350h400v-350h175l-375-375-375 375z" horiz-adv-x="1000" />

<glyph glyph-name="arrow-bold-left" unicode="&#xe811;" d="M500 725v-175h350v-400h-350v-175l-375 375 375 375z" horiz-adv-x="1000" />

<glyph glyph-name="arrow-bold-right" unicode="&#xe812;" d="M875 350l-375-375v175h-350v400h350v175l375-375z" horiz-adv-x="1000" />

<glyph glyph-name="arrow-bold-up" unicode="&#xe813;" d="M500 725l375-375h-175v-350h-400v350h-175l375 375z" horiz-adv-x="1000" />

<glyph glyph-name="arrow-down" unicode="&#xe814;" d="M500-25l-325 325h175v400h300v-400h175l-325-325z" horiz-adv-x="1000" />

<glyph glyph-name="arrow-left" unicode="&#xe815;" d="M125 350l325 325v-175h400v-300h-400v-175l-325 325z" horiz-adv-x="1000" />

<glyph glyph-name="arrow-long-down" unicode="&#xe816;" d="M500-113l-275 263h175v650h200v-650h175l-275-263z" horiz-adv-x="1000" />

<glyph glyph-name="arrow-long-left" unicode="&#xe817;" d="M38 350l262 275v-175h650v-200h-650v-175l-262 275z" horiz-adv-x="1000" />

<glyph glyph-name="arrow-long-right" unicode="&#xe818;" d="M700 75v175h-650v200h650v175l263-275-263-275z" horiz-adv-x="1000" />

<glyph glyph-name="arrow-long-up" unicode="&#xe819;" d="M500 813l275-263h-175v-650h-200v650h-175l275 263z" horiz-adv-x="1000" />

<glyph glyph-name="arrow-right" unicode="&#xe81a;" d="M550 25v175h-400v300h400v175l325-325-325-325z" horiz-adv-x="1000" />

<glyph glyph-name="arrow-up" unicode="&#xe81b;" d="M500 725l325-325h-175v-400h-300v400h-175l325 325z" horiz-adv-x="1000" />

<glyph glyph-name="arrow-with-circle-down" unicode="&#xe81c;" d="M500 830c-265 0-480-215-480-480 0-265 215-480 480-480 265 0 480 215 480 480 0 265-215 480-480 480z m0-860c-210 0-380 170-380 380s170 380 380 380 380-170 380-380-170-380-380-380z m100 580h-200v-200h-125l225-225 225 225h-125v200z" horiz-adv-x="1000" />

<glyph glyph-name="arrow-with-circle-left" unicode="&#xe81d;" d="M500 830c-265 0-480-215-480-480 0-265 215-480 480-480 265 0 480 215 480 480 0 265-215 480-480 480z m0-860c-210 0-380 170-380 380s170 380 380 380 380-170 380-380-170-380-380-380z m0 605l-225-225 225-225v125h200v200h-200v125z" horiz-adv-x="1000" />

<glyph glyph-name="arrow-with-circle-right" unicode="&#xe81e;" d="M500 830c-265 0-480-215-480-480 0-265 215-480 480-480 265 0 480 215 480 480 0 265-215 480-480 480z m0-860c-210 0-380 170-380 380s170 380 380 380 380-170 380-380-170-380-380-380z m0 480h-200v-200h200v-125l225 225-225 225v-125z" horiz-adv-x="1000" />

<glyph glyph-name="arrow-with-circle-up" unicode="&#xe81f;" d="M500 830c-265 0-480-215-480-480 0-265 215-480 480-480 265 0 480 215 480 480 0 265-215 480-480 480z m0-860c-210 0-380 170-380 380s170 380 380 380 380-170 380-380-170-380-380-380z m0 605l225-225h-125v-200h-200v200h-125l225 225z" horiz-adv-x="1000" />

<glyph glyph-name="attachment" unicode="&#xe820;" d="M280-140c-64 0-125 28-169 72-84 86-108 236 11 356 69 70 348 353 487 493 49 50 112 70 172 53 60-16 108-65 124-125 16-61-3-124-52-174l-467-472c-26-27-56-43-86-46-30-4-59 6-79 26-36 37-41 106 19 167l327 332c14 13 36 13 49 0s14-36 0-50l-327-331c-29-29-31-56-19-68 5-6 13-8 22-7 14 2 31 11 46 26l466 472c32 32 44 71 34 107-9 37-39 66-74 76-37 10-74-3-106-35-139-141-418-423-488-494-90-91-69-197-10-257 59-59 163-81 254 11l487 493c14 14 35 14 49 0 13-13 13-35 0-49l-487-494c-58-58-122-82-183-82z" horiz-adv-x="1000" />

<glyph glyph-name="awareness-ribbon" unicode="&#xe821;" d="M829 33c-38 53-143 191-229 305 35 50 63 91 76 113 77 129 43 213 1 283-43 71-50 111-177 111-127 0-134-40-177-111-42-70-76-154 2-283 12-22 40-63 75-113-86-114-191-252-229-305-8-12-8-33 1-54 6-16 31-88 37-103 8-20 34-34 54-5 13 17 130 176 237 326 108-149 225-309 237-326 20-29 46-15 54 5 6 15 31 87 37 103 9 21 10 42 1 54z m-347 464c-54 74-92 160-92 160s21 38 110 38c89 0 110-38 110-38s-38-86-92-160c-4-6-11-15-18-25-7 10-14 19-18 25z" horiz-adv-x="1000" />

<glyph glyph-name="back-in-time" unicode="&#xe822;" d="M550 760c-222 0-403-178-408-400v-10h-119l180-195 174 195h-133v10c5 165 140 298 306 298 169 0 307-138 307-308 0-170-138-307-307-307-68 0-131 22-181 59l-71-75c70-54 157-87 252-87 226 0 409 184 409 410s-183 410-409 410z m-50-160v-250c0-6 1-13 4-19 2-6 6-12 11-16l160-160c14 9 27 19 39 31l-114 114v300h-100z" horiz-adv-x="1000" />

<glyph glyph-name="back" unicode="&#xe823;" d="M950 500v-300c0-55-45-100-100-100h-700v150h650v200h-550v-100l-200 175 200 175v-100h600c55 0 100-45 100-100z" horiz-adv-x="1000" />

<glyph glyph-name="bar-graph" unicode="&#xe824;" d="M850 800h-100c-28 0-50-22-50-50v-850h200v850c0 28-22 50-50 50z m-300-300h-100c-28 0-50-22-50-50v-550h200v550c0 28-22 50-50 50z m-300-300h-100c-28 0-50-22-50-50v-250h200v250c0 28-22 50-50 50z" horiz-adv-x="1000" />

<glyph glyph-name="battery" unicode="&#xe825;" d="M770 350c0 138 64 216 114 216 18 0 66 0 66 0-33 53-61 84-183 84h-500c-187 0-267-172-267-300 0-128 80-300 267-300h500c122 0 150 31 183 84 0 0-16 0-66 0s-114 78-114 216z m-136-90c-8-12-33 0-33 0l-148 66c0 0-13-33-24-57-10-23-18-50-60-20-42 30-179 162-179 162s-17 15-9 28c8 13 34 1 34 1l148-67c0 0 13 33 23 57 11 23 18 50 61 20 42-29 179-162 179-162s17-14 8-28z m310 194h-38c-28 0-55-38-55-99 0-62 27-99 55-99h38c28 0 56 37 56 99 0 61-28 99-56 99z" horiz-adv-x="1000" />

<glyph glyph-name="beamed-note" unicode="&#xe826;" d="M850 800l0-650c0-62-65-150-187-150-63 0-113 33-113 94 0 79 72 127 150 127 22 0 38-3 50-6v367l-350-64 0-468h0c0-62-65-150-187-150-63 0-113 33-113 94 0 79 72 127 150 127 22 0 38-3 50-6v585l550 100z" horiz-adv-x="1000" />

<glyph glyph-name="bell" unicode="&#xe827;" d="M733 424c-114 246-174 339-360 335-66-1-50 48-101 29-51-18-7-46-59-88-145-119-132-230-64-492 28-111-69-116-30-224 28-78 234-111 451-30 217 81 354 241 326 319-38 107-115 48-163 151z m-187-404c-194-72-353-30-360-11-12 33 63 141 284 224 222 82 346 51 359 15 8-21-89-156-283-228z m-62 175c-102-38-172-81-218-119 32-30 93-37 152-15 77 29 124 94 105 146 0 0 0 1-1 1-12-4-25-8-38-13z" horiz-adv-x="1000" />

<glyph glyph-name="blackboard" unicode="&#xe828;" d="M127-150h173l70 185-148 50-95-235z m503 185l70-185h173l-95 235-148-50z m270 715h-325l-25 100h-100l-25-100h-325c-28 0-50-22-50-50v-550c0-28 22-50 50-50h800c28 0 50 22 50 50v550c0 28-22 50-50 50z" horiz-adv-x="1000" />

<glyph glyph-name="block" unicode="&#xe829;" d="M500 830c-265 0-480-215-480-480 0-265 215-480 480-480 265 0 480 215 480 480 0 265-215 480-480 480z m-380-480c0 210 170 380 380 380 91 0 175-32 241-86l-535-535c-54 66-86 150-86 241z m380-380c-91 0-175 32-241 86l535 535c54-66 86-149 86-241 0-210-170-380-380-380z" horiz-adv-x="1000" />

<glyph glyph-name="book" unicode="&#xe82a;" d="M850 553v-518c0-26-23-39-50-58-22-16-50 4-50 29 0 0 0 496 0 506 0 11-4 21-16 27-12 6-387 203-387 203-6 2-32 19-67 1-34-17-52-36-56-45l409-224c10-6 17-14 17-26v-540c0-11-7-24-18-29-6-3-11-4-17-4-7 0-14 2-19 5-11 7-389 239-414 254-12 7-26 22-26 32l-6 515c0 10-1 27 15 51 34 55 156 116 218 84l449-227c11-6 18-17 18-36z" horiz-adv-x="1000" />

<glyph glyph-name="bookmark" unicode="&#xe82b;" d="M700 750v-850l-200 200-200-200v850c0 28 29 51 50 50h300c35 1 50-22 50-50z" horiz-adv-x="1000" />

<glyph glyph-name="bookmarks" unicode="&#xe82c;" d="M750 850h-200c-28 0-50-22-50-50l1-11c55 0 100-45 100-100v-568l49 59 150-180v800c0 28-22 50-50 50z m-299-150h-201c-28 0-50-22-50-50v-800l150 180 150-180v800c0 28-21 50-49 50z" horiz-adv-x="1000" />

<glyph glyph-name="bowl" unicode="&#xe82d;" d="M848 476c-109-145-205-150-353-157h-5c-179 0-307 67-307 91 0 24 115 85 280 91l30 74c-1 0-2 0-3 0-245 0-389-78-389-152v-100c0-46 29-448 379-448s400 402 400 448v100c0 19-10 39-29 58l-3-5z m31 239c-22 16-53 12-69-10l-181-241 117 292c10 26-2 55-28 65-25 11-55-2-65-28l-163-407c144 8 214 12 304 131 89 119 95 128 95 128 17 22 13 53-10 70z" horiz-adv-x="1000" />

<glyph glyph-name="box" unicode="&#xe82e;" d="M920 750h-840c-17 0-30-13-30-30v-120h900v120c0 17-13 30-30 30z m-820-730c0-39 31-70 70-70h660c39 0 70 31 70 70v530h-800v-530z m250 430h300v-100h-300v100z" horiz-adv-x="1000" />

<glyph glyph-name="briefcase" unicode="&#xe82f;" d="M450 350h100v-100h450c0 0-7 223-10 293-2 66-26 107-100 107h-160c-25 47-52 97-60 113-17 31-22 37-59 37h-222c-37 0-42-6-59-37-8-16-35-66-60-113h-160c-74 0-97-41-100-107-3-67-10-293-10-293h450v100z m-68 354c12 22 16 26 41 26h154c25 0 29-4 41-26 4-8 15-30 28-54h-292c13 24 24 46 28 54z m168-604h-100v100h-425c0 0 6-90 10-166 2-32 11-84 90-84h750c79 0 88 52 90 84 4 78 10 166 10 166h-425v-100z" horiz-adv-x="1000" />

<glyph glyph-name="browser" unicode="&#xe830;" d="M900 750h-800c-55 0-100-45-100-100v-600c0-55 45-100 100-100h800c55 0 100 45 100 100v600c0 55-45 100-100 100z m-675-87c21 0 38-17 38-38 0-21-17-37-38-37-21 0-37 16-37 37 0 21 16 38 37 38z m-137-38c0 21 16 38 37 38 21 0 38-17 38-38 0-21-17-37-38-37-21 0-37 16-37 37z m812-575h-800v450h800v-450z m0 550h-600v50h601l-1-50z" horiz-adv-x="1000" />

<glyph glyph-name="brush" unicode="&#xe831;" d="M138 172c-76-74-12-151-112-264-46-51 187-36 302 77 49 49 35 118-18 170-52 51-123 65-172 17z m839 645c-39 38-469-306-597-432-64-63-85-96-104-121-9-11 3-14 8-17 25-13 42-25 65-47 23-22 35-40 48-65 3-4 6-15 17-7 26 19 60 40 123 102 128 126 479 549 440 587z" horiz-adv-x="1000" />

<glyph glyph-name="bucket" unicode="&#xe832;" d="M550 800c-245 0-400-80-389-147 3-20 11-98 21-164-120-47-160-123-155-184 7-73 73-152 217-165 82-8 181 37 246 115-6 10-10 22-10 35 0 39 31 70 70 70 39 0 70-31 70-70 0-38-30-69-68-70-77-98-193-158-304-151 3-16 4-47 5-56 5-29 118-113 297-113 180 0 292 84 297 113 4 29 82 571 93 640 10 67-145 147-390 147z m-453-489c-3 32 23 75 96 107 11-67 22-140 33-204-81 16-125 58-129 97z m453 238c-179 0-307 67-307 91 0 25 128 90 307 90 180 0 307-65 307-90 0-24-127-91-307-91z" horiz-adv-x="1000" />

<glyph glyph-name="bug" unicode="&#xe833;" d="M500 800c-110 0-200-89-200-200h400c0 111-89 200-200 200z m450-450h-150v125c0 1 0 3 0 4l110 111c20 19 20 51 0 70-19 20-51 20-70 0l-111-110c-1 0-3 0-4 0h-450c-1 0-2 0-4 0l-111 110c-19 20-51 20-70 0-20-19-20-51 0-70l110-111c0-1 0-3 0-4v-125h-150c-28 0-50-22-50-50 0-28 22-50 50-50h150c0-39 8-76 21-110-2-2-4-3-6-5l-142-141c-19-20-19-51 0-71 20-19 51-19 71 0l130 130c45-51 106-87 176-99v496h100v-496c70 12 131 48 176 99l130-130c20-19 51-19 71 0 19 20 19 51 0 71l-142 141c-2 2-4 3-6 5 13 34 21 71 21 110h150c28 0 50 22 50 50 0 28-22 50-50 50z" horiz-adv-x="1000" />

<glyph glyph-name="cake" unicode="&#xe834;" d="M479 548c98 0 130 69 92 142-43 85 95 158 26 158-65 0-187-71-209-159-17-66 15-141 91-141z m261-447l-22 19c-25 21-63 21-87 0l-22-19c-31-27-70-40-109-40-39 0-78 13-109 40l-22 19c-24 21-62 21-86 0l-23-19c-59-52-148-53-210-5v-196c0-28 23-50 50-50h800c28 0 50 22 50 50v196c-62-48-150-47-210 5z m-240 399c-379 0-450-168-450-250v-23l58-51c25-21 63-20 87 0l22 20c62 53 155 53 217 0l23-20c24-20 62-21 86 0l22 20c62 53 156 53 218 0l22-20c24-21 63-20 87 0l58 51v23c0 82-71 250-450 250z" horiz-adv-x="1000" />

<glyph glyph-name="calculator" unicode="&#xe835;" d="M730 800h-460c-39 0-70-31-70-70v-760c0-39 31-70 70-70h460c39 0 70 31 70 70v760c0 39-31 70-70 70z m-380-550c34 0 63-22 63-50s-29-50-63-50c-34 0-62 22-62 50s28 50 62 50z m-62 100c0 28 28 50 62 50 34 0 63-22 63-50 0-28-29-50-63-50-34 0-62 22-62 50z m62-250c34 0 63-22 63-50s-29-50-63-50c-34 0-62 22-62 50s28 50 62 50z m150 150c35 0 63-22 63-50s-28-50-63-50c-34 0-62 22-62 50s28 50 62 50z m-62 100c0 28 28 50 62 50 35 0 63-22 63-50 0-28-28-50-63-50-34 0-62 22-62 50z m62-250c35 0 63-22 63-50s-28-50-63-50c-34 0-62 22-62 50s28 50 62 50z m150 150c35 0 63-22 63-50s-28-50-63-50c-34 0-62 22-62 50s28 50 62 50z m-62 100c0 28 28 50 62 50 35 0 63-22 63-50 0-28-28-50-63-50-34 0-62 22-62 50z m62-250c35 0 63-22 63-50s-28-50-63-50c-34 0-62 22-62 50s28 50 62 50z m-400 400v150h500v-150h-500z" horiz-adv-x="1000" />

<glyph glyph-name="calendar" unicode="&#xe836;" d="M850 700h-50v-100h-150v100h-300v-100h-150v100h-50c-55 0-100-45-100-100v-600c0-55 45-100 100-100h700c55 0 100 45 100 100v600c0 55-45 100-100 100z m0-700h-700v400h700v-400z m-525 800h-100v-175h100v175z m450 0h-100v-175h100v175z" horiz-adv-x="1000" />

<glyph glyph-name="camera" unicode="&#xe837;" d="M500 450c-83 0-150-67-150-150 0-83 67-150 150-150 83 0 150 67 150 150 0 83-67 150-150 150z m400 150h-120c-16 0-34 13-39 29l-31 93c-6 15-23 28-40 28h-340c-16 0-34-13-39-28l-32-93c-5-16-22-29-39-29h-120c-55 0-100-45-100-100v-450c0-55 45-100 100-100h800c55 0 100 45 100 100v450c0 55-45 100-100 100z m-400-550c-138 0-250 112-250 250 0 138 112 250 250 250 138 0 250-112 250-250 0-138-112-250-250-250z m375 390c-19 0-35 16-35 35 0 19 16 35 35 35s35-16 35-35c0-19-16-35-35-35z" horiz-adv-x="1000" />

<glyph glyph-name="ccw" unicode="&#xe838;" d="M34 350h119v10c5 222 186 400 408 400 226 0 409-184 409-410s-183-410-409-410c-95 0-182 33-251 87l70 75c51-37 113-59 181-59 170 0 307 137 307 307 0 170-137 308-307 308-166 0-301-133-306-298v-10h134l-175-195-180 195z" horiz-adv-x="1000" />

<glyph glyph-name="chat" unicode="&#xe839;" d="M290 240v310h-190c-55 0-100-45-100-100v-300c0-55 45-100 100-100h50v-150l150 150h250c55 0 100 45 100 100v91c-3-1-7-1-10-1h-350v0z m610 560h-450c-55 0-100-45-100-100v-400h350l150-150v150h50c55 0 100 45 100 100v300c0 55-45 100-100 100z" horiz-adv-x="1000" />

<glyph glyph-name="check" unicode="&#xe83a;" d="M415 0c-22 0-43 10-56 28l-178 236c-24 30-18 74 13 97 31 24 74 18 98-13l117-155 296 474c20 33 63 43 96 23 33-21 43-64 22-96l-349-561c-12-20-33-32-56-33-1 0-2 0-3 0z" horiz-adv-x="1000" />

<glyph glyph-name="chevron-down" unicode="&#xe83b;" d="M226 473c22 22 52 24 79 0l195-188 195 188c27 24 57 22 79 0 22-23 21-60 0-81-20-21-235-225-235-225-10-11-25-17-39-17s-28 6-39 17c0 0-215 204-235 225-21 21-22 58 0 81z" horiz-adv-x="1000" />

<glyph glyph-name="chevron-left" unicode="&#xe83c;" d="M623 624c22-22 24-52 0-79l-188-195 188-195c24-27 22-57 0-79-23-22-60-20-81 0-21 20-225 235-225 235-11 11-17 25-17 39s6 29 17 39c0 0 204 215 225 235 21 21 58 22 81 0z" horiz-adv-x="1000" />

<glyph glyph-name="chevron-right" unicode="&#xe83d;" d="M458 624c21-20 225-235 225-235 11-10 17-25 17-39s-6-28-17-39c0 0-204-215-225-235-21-20-58-22-81 0-22 22-24 52 0 79l188 195-188 195c-24 27-22 58 0 79 23 22 60 21 81 0z" horiz-adv-x="1000" />

<glyph glyph-name="chevron-small-down" unicode="&#xe83e;" d="M671 457c14 13 35 13 49 0 13-13 13-35 0-48l-196-192c-13-13-35-13-48 0l-196 192c-13 13-13 35 0 48 14 14 36 14 49 0l171-157 171 157z" horiz-adv-x="1000" />

<glyph glyph-name="chevron-small-left" unicode="&#xe83f;" d="M607 179c14-13 14-35 0-49-13-13-35-13-48 0l-192 196c-13 13-13 35 0 49l192 195c13 13 35 13 48 0 14-14 14-35 0-49l-157-171 157-171z" horiz-adv-x="1000" />

<glyph glyph-name="chevron-small-right" unicode="&#xe840;" d="M550 350l-157 171c-13 14-13 35 0 49 13 13 35 13 48 0l192-195c13-14 13-36 0-49l-192-196c-13-13-35-13-48 0-13 14-13 36 0 49l157 171z" horiz-adv-x="1000" />

<glyph glyph-name="chevron-small-up" unicode="&#xe841;" d="M329 243c-13-13-35-13-49 0-13 13-13 35 0 48l196 192c13 13 35 13 49 0l195-192c13-13 13-35 0-48-14-13-35-13-49 0l-171 157-171-157z" horiz-adv-x="1000" />

<glyph glyph-name="chevron-thin-down" unicode="&#xe842;" d="M871 545c14 13 35 13 49 0 13-14 13-35 0-49l-396-391c-13-14-35-14-48 0l-396 391c-13 14-13 35 0 49 14 13 36 13 49 0l371-357 371 357z" horiz-adv-x="1000" />

<glyph glyph-name="chevron-thin-left" unicode="&#xe843;" d="M695-21c13-14 13-35 0-49-14-13-35-13-49 0l-391 396c-14 13-14 35 0 49l391 395c14 13 35 13 49 0 13-14 13-35 0-49l-357-371 357-371z" horiz-adv-x="1000" />

<glyph glyph-name="chevron-thin-right" unicode="&#xe844;" d="M663 350l-358 371c-13 14-13 35 0 49 14 14 36 14 49 0l391-395c14-14 14-36 0-49l-391-396c-13-13-35-13-48 0-14 14-14 35 0 49l357 371z" horiz-adv-x="1000" />

<glyph glyph-name="chevron-thin-up" unicode="&#xe845;" d="M129 156c-13-14-35-14-49 0s-13 35 0 48l396 391c13 14 35 14 49 0l395-391c13-13 13-35 0-48-14-14-35-14-49 0l-371 357-371-357z" horiz-adv-x="1000" />

<glyph glyph-name="chevron-up" unicode="&#xe846;" d="M774 227c-22-22-52-24-79 0l-195 188-195-188c-27-24-57-22-79 0-22 23-20 60 0 81 20 21 235 225 235 225 11 11 25 17 39 17s29-6 39-17c0 0 215-204 235-225 21-21 22-58 0-81z" horiz-adv-x="1000" />

<glyph glyph-name="chevron-with-circle-down" unicode="&#xe847;" d="M625 415l-125-115-125 115c-10 10-26 10-36 0-10-10-10-26 0-35l143-141c10-10 26-10 36 0l143 141c10 9 10 25 0 35-10 10-26 10-36 0z m-125 415c-265 0-480-215-480-480 0-265 215-480 480-480s480 215 480 480c0 265-215 480-480 480z m0-898c-231 0-418 187-418 418 0 231 187 418 418 418 231 0 418-187 418-418 0-231-187-418-418-418z" horiz-adv-x="1000" />

<glyph glyph-name="chevron-with-circle-left" unicode="&#xe848;" d="M565 511c-10 10-26 10-35 0l-141-143c-9-10-9-26 0-36l141-143c9-10 25-10 35 0 10 10 10 26 0 36l-115 125 115 125c10 10 10 26 0 36z m-65 319c-265 0-480-215-480-480 0-265 215-480 480-480s480 215 480 480c0 265-215 480-480 480z m0-898c-231 0-418 187-418 418 0 231 187 418 418 418 231 0 418-187 418-418 0-231-187-418-418-418z" horiz-adv-x="1000" />

<glyph glyph-name="chevron-with-circle-right" unicode="&#xe849;" d="M550 350l-115 125c-10 10-10 26 0 36 10 10 26 10 35 0l141-143c10-10 10-26 0-36l-141-143c-9-10-25-10-35 0-10 10-10 26 0 36l115 125z m-50 480c265 0 480-215 480-480 0-265-215-480-480-480s-480 215-480 480c0 265 215 480 480 480z m0-898c231 0 418 187 418 418 0 231-187 418-418 418-231 0-418-187-418-418 0-231 187-418 418-418z" horiz-adv-x="1000" />

<glyph glyph-name="chevron-with-circle-up" unicode="&#xe84a;" d="M518 461c-10 10-26 10-36 0l-143-141c-10-9-10-25 0-35 10-10 26-10 36 0l125 115 125-115c10-10 26-10 36 0 10 10 10 26 0 35l-143 141z m-18 369c-265 0-480-215-480-480 0-265 215-480 480-480s480 215 480 480c0 265-215 480-480 480z m0-898c-231 0-418 187-418 418 0 231 187 418 418 418 231 0 418-187 418-418 0-231-187-418-418-418z" horiz-adv-x="1000" />

<glyph glyph-name="circle-with-cross" unicode="&#xe84b;" d="M500 770c-232 0-420-188-420-420 0-232 188-420 420-420s420 188 420 420c0 232-188 420-420 420z m239-573l-86-86-153 153-153-153-86 86 153 153-153 153 86 86 153-153 153 154 87-87-154-153 153-153z" horiz-adv-x="1000" />

<glyph glyph-name="circle-with-minus" unicode="&#xe84c;" d="M500 770c-232 0-420-188-420-420 0-232 188-420 420-420s420 188 420 420c0 232-188 420-420 420z m250-470h-500v100h500v-100z" horiz-adv-x="1000" />

<glyph glyph-name="circle-with-plus" unicode="&#xe84d;" d="M500 770c-232 0-420-188-420-420 0-232 188-420 420-420s420 188 420 420c0 232-188 420-420 420z m250-470h-200v-200h-100v200h-200v100h200v200h100v-200h200v-100z" horiz-adv-x="1000" />

<glyph glyph-name="circle" unicode="&#xe84e;" d="M500 830c-265 0-480-215-480-480 0-265 215-480 480-480 265 0 480 215 480 480 0 265-215 480-480 480z m0-860c-210 0-380 170-380 380s170 380 380 380c210 0 380-170 380-380s-170-380-380-380z" horiz-adv-x="1000" />

<glyph glyph-name="circular-graph" unicode="&#xe84f;" d="M879 381h100c-3 53-14 103-33 150l-88-51c11-31 19-64 21-99z m-174 404c-48 23-99 38-154 44v-101c36-5 71-15 104-29l50 86z m107-216l87 50c-29 44-66 82-108 114l-51-87c28-22 52-48 72-77z m-311-598c-210 0-380 171-380 380 0 193 144 352 330 377v101c-242-25-430-229-430-478 0-265 215-480 480-480 241 0 440 179 474 410h-101c-33-176-187-310-373-310z" horiz-adv-x="1000" />

<glyph glyph-name="clapperboard" unicode="&#xe850;" d="M1000 700v-700c0-28-22-50-50-50h-900c-28 0-50 22-50 50v700c0 28 22 50 50 50h50l150-150h125l-150 150h150l150-150h125l-150 150h150l150-150h125l-150 150h175c28 0 50-22 50-50z" horiz-adv-x="1000" />

<glyph glyph-name="classic-computer" unicode="&#xe851;" d="M800 850h-600c-55 0-100-45-100-100v-750c0-28 22-50 50-50v-100h700v100c28 0 50 22 50 50v750c0 55-45 100-100 100z m-100-750h-200v50h200v-50z m50 200h-500v400h500v-400z" horiz-adv-x="1000" />

<glyph glyph-name="clipboard" unicode="&#xe852;" d="M780 750l-60-150h-440l-60 150c-39 0-70-31-70-70v-760c0-39 31-70 70-70h560c39 0 70 31 70 70v760c0 39-31 70-70 70z m-100-100l45 100h-109l-36 100h-160l-36-100h-109l45-100h360z" horiz-adv-x="1000" />

<glyph glyph-name="clock" unicode="&#xe853;" d="M500 830c-265 0-480-215-480-480 0-265 215-480 480-480 265 0 480 215 480 480 0 265-215 480-480 480z m0-860c-210 0-380 170-380 380 0 210 170 380 380 380 210 0 380-170 380-380 0-210-170-380-380-380z m50 414v266h-100v-312l-177-103 50-86 206 119c11 7 21 23 21 37v8l212 209c-10 13-20 26-32 38l-180-176z" horiz-adv-x="1000" />

<glyph glyph-name="cloud" unicode="&#xe854;" d="M1000 284c0-129-107-234-239-234h-580c-100 0-181 79-181 177 0 97 81 177 181 177 7 0 14-1 21-2-1 13-3 25-3 38 0 144 120 260 266 260 121 0 222-78 255-185 13 2 27 3 41 3 132 0 239-105 239-234z" horiz-adv-x="1000" />

<glyph glyph-name="code" unicode="&#xe855;" d="M286 113c-12 0-24 4-33 12l-253 225 267 237c20 19 52 17 70-4 19-20 17-52-4-70l-183-163 169-150c21-18 23-50 4-71-10-11-23-16-37-16z m447 0l267 237-253 225c-20 18-52 16-70-4-19-21-17-52 4-71l169-150-183-163c-21-18-23-49-4-70 10-11 23-17 37-17 12 0 24 4 33 13z m-234-71l100 600c5 27-13 53-41 57-27 5-53-13-57-41l-100-600c-5-27 14-53 41-57 3-1 5-1 8-1 24 0 45 17 49 42z" horiz-adv-x="1000" />

<glyph glyph-name="cog" unicode="&#xe856;" d="M839 350c0 52 33 94 81 122-9 29-20 57-35 84-54-14-98 7-135 44-37 37-48 81-34 135-27 15-55 26-84 35-28-48-80-81-132-81-52 0-104 33-132 81-29-9-57-20-84-34 15-55 3-99-34-136-37-37-81-58-135-44-15-27-26-55-35-84 49-28 81-70 81-122 0-52-32-104-81-132 9-29 20-57 35-84 54 15 98 3 135-34 37-37 49-81 34-135 27-15 55-26 84-35 28 49 80 81 132 81 52 0 104-33 132-81 29 9 57 20 84 35-14 54-3 98 34 135 37 37 81 58 136 44 14 27 25 55 34 84-49 28-81 70-81 122z m-339-183c-101 0-183 82-183 183 0 101 82 183 183 183 101 0 183-82 183-183 0-101-82-183-183-183z" horiz-adv-x="1000" />

<glyph glyph-name="colours" unicode="&#xe857;" d="M159 550c-21 18-53 15-70-6l-64-77c-18-22-15-53 6-71l395-327-191 418-76 63z m192 166l-91-42c-25-11-36-41-25-66l212-466 11 459-41 90c-12 25-41 36-66 25z m360-10c0 27-22 50-49 51l-100 2c-28 1-51-21-51-49l-12-512 209 409 3 99z m249-48l-89 46c-25 12-55 3-68-22l-319-623c-13-24-3-54 21-67l89-46c25-12 55-3 68 22l319 623c13 24 3 55-21 67z m-320-623c-13-24-43-34-67-21-25 12-35 42-22 67 13 25 43 34 67 22 25-13 35-43 22-68z" horiz-adv-x="1000" />

<glyph glyph-name="compass" unicode="&#xe858;" d="M273 123c0 0 228 31 326 128s128 326 128 326-228-31-325-128-129-326-129-326z m178 276c41 41 119 70 186 88-18-67-47-146-88-186-27-27-71-27-98 0-27 27-27 71 0 98z m49 431c-265 0-480-215-480-480 0-265 215-480 480-480 265 0 480 215 480 480 0 265-215 480-480 480z m0-860c-210 0-380 170-380 380 0 210 170 380 380 380 210 0 380-170 380-380 0-210-170-380-380-380z" horiz-adv-x="1000" />

<glyph glyph-name="controller-fast-backward" unicode="&#xe859;" d="M898 622l-360-248c0 0-14-10-14-24s14-24 14-24l360-247c29-19 52-5 52 31v480c0 37-23 51-52 32z m-454 0l-360-248c0 0-14-10-14-24s14-24 14-24l360-247c29-20 52-5 52 31v480c0 37-23 51-52 32z" horiz-adv-x="1000" />

<glyph glyph-name="controller-fast-forward" unicode="&#xe85a;" d="M462 374l-360 248c-28 19-52 5-52-32v-480c0-36 23-50 52-31l360 247c0 0 14 10 14 24 0 14-14 24-14 24z m468-24c0-14-14-24-14-24l-360-247c-29-19-52-5-52 31v480c0 37 23 51 52 32l360-248c0 0 14-10 14-24z" horiz-adv-x="1000" />

<glyph glyph-name="controller-jump-to-start" unicode="&#xe85b;" d="M748 622l-360-248c0 0-14-10-14-24s14-24 14-24l360-247c29-19 52-5 52 31v480c0 37-23 51-52 32z m-448 28h-50c-28 0-50-2-50-30v-540c0-28 22-30 50-30h50c28 0 50 2 50 30v540c0 28-22 30-50 30z" horiz-adv-x="1000" />

<glyph glyph-name="controller-next" unicode="&#xe85c;" d="M612 374l-360 248c-28 19-52 5-52-32v-480c0-36 24-50 52-31l360 247c0 0 14 10 14 24 0 14-14 24-14 24z m88 276h50c28 0 50-2 50-30v-540c0-28-22-30-50-30h-50c-28 0-50 2-50 30v540c0 28 22 30 50 30z" horiz-adv-x="1000" />

<glyph glyph-name="controller-paus" unicode="&#xe85d;" d="M750 700h-100c-28 0-50-2-50-30v-640c0-28 22-30 50-30h100c28 0 50 2 50 30v640c0 28-22 30-50 30z m-400 0h-100c-28 0-50-2-50-30v-640c0-28 22-30 50-30h100c28 0 50 2 50 30v640c0 28-22 30-50 30z" horiz-adv-x="1000" />

<glyph glyph-name="controller-play" unicode="&#xe85e;" d="M750 350c0-15-15-26-15-26l-428-265c-31-20-57-5-57 34v514c0 39 26 54 57 34l428-265c0 0 15-11 15-26z" horiz-adv-x="1000" />

<glyph glyph-name="controller-record" unicode="&#xe85f;" d="M500 700c-193 0-350-157-350-350 0-193 157-350 350-350s350 157 350 350c0 193-157 350-350 350z" horiz-adv-x="1000" />

<glyph glyph-name="controller-stop" unicode="&#xe860;" d="M800 600v-490c0-33-27-60-60-60h-490c-28 0-50 22-50 50v490c0 33 27 60 60 60h490c28 0 50-22 50-50z" horiz-adv-x="1000" />

<glyph glyph-name="controller-volume" unicode="&#xe861;" d="M950 160c0-33-27-60-60-60h-813c-44 0-49 19-12 41l816 453c38 23 69 5 69-39v-395z" horiz-adv-x="1000" />

<glyph glyph-name="copy" unicode="&#xe862;" d="M550 850h-400c-28 0-50-22-50-50v-600c0-28 22-50 50-50h250v-100h100v100h-100v100h100v100h-100v-100h-200v500h300v-200h100v250c0 28-22 50-50 50z m-150-350v-50h100v100h-50c-28 0-50-22-50-50z m200-650h100v100h-100v-100z m0 600h100v100h-100v-100z m-200-550c0-28 22-50 50-50h50v100h-100v-50z m450 650h-50v-100h100v50c0 28-22 50-50 50z m-50-700h50c28 0 50 22 50 50v50h-100v-100z m0 400h100v100h-100v-100z m0-200h100v100h-100v-100z" horiz-adv-x="1000" />

<glyph glyph-name="creative-commons-attribution" unicode="&#xe863;" d="M630 470v-195h-55v-230h-150v230h-55v195c0 15 15 30 30 30h200c15 0 30-15 30-30z m-130 55c35 0 65 30 65 65 0 35-30 65-65 65-35 0-65-30-65-65 0-35 30-65 65-65z m480-175c0-135-45-245-135-335-95-95-210-145-345-145-130 0-245 45-340 140-95 95-140 205-140 340 0 130 45 245 140 340 95 95 205 140 340 140 135 0 250-45 340-140 95-90 140-205 140-340z m-85 0c0 110-40 200-115 280-80 75-170 115-280 115-110 0-200-40-275-115-80-80-120-175-120-280 0-105 40-200 115-275s170-115 280-115c105 0 200 40 280 120 75 70 115 160 115 270z" horiz-adv-x="1000" />

<glyph glyph-name="creative-commons-noderivs" unicode="&#xe864;" d="M840 690c-90 95-205 140-340 140-135 0-245-45-340-140-95-95-140-210-140-340 0-130 45-245 140-340 95-95 205-140 340-140 130 0 245 50 345 145 90 90 135 205 135 335 0 135-45 250-140 340z m-60-615c-80-80-175-120-280-120-105 0-200 40-280 115-75 80-115 175-115 280 0 105 40 200 120 280 75 75 165 115 275 115s200-40 280-115c75-75 115-170 115-280 0-110-40-200-115-275z m-450 235h350v-85h-350v85z m0 155h350v-85h-350v85z" horiz-adv-x="1000" />

<glyph glyph-name="creative-commons-noncommercial-eu" unicode="&#xe865;" d="M840 690c-90 95-205 140-340 140-135 0-245-45-340-140-95-95-140-210-140-340 0-130 45-245 140-340 95-95 205-140 340-140 130 0 245 50 345 145 90 90 135 205 135 335 0 135-45 250-140 340z m-60-615c-80-80-175-120-280-120-105 0-200 40-280 115-75 80-115 175-115 280 0 45 5 90 20 130l125-55h-5v-55h45c0-10 0-15 0-25v-15h-45v-55h50c5-45 25-75 45-105 45-60 115-90 195-90 50 0 100 15 125 30l-20 90c-15-10-55-20-90-20-40 0-80 10-105 40-10 15-20 30-25 55h180l250-110c-20-35-45-65-70-90z m-315 250l0 0 0 0 0 0z m155 40h5v55h-135l-55 25c5 10 10 20 15 30 25 30 60 45 100 45 35 0 70-10 90-20l25 90c-30 15-70 25-120 25-80 0-145-30-190-85-10-10-20-25-25-35l-160 65c15 25 35 45 55 65 75 80 165 120 275 120 110 0 200-40 280-115 75-75 115-170 115-280 0-35-5-70-10-100l-265 115z" horiz-adv-x="1000" />

<glyph glyph-name="creative-commons-noncommercial-us" unicode="&#xe866;" d="M840 690c-90 95-205 140-340 140-135 0-245-45-340-140-95-95-140-210-140-340s45-245 140-340c95-95 205-140 340-140 130 0 245 50 345 145 90 90 135 205 135 335s-45 250-140 340z m-60-615c-80-80-175-120-280-120-105 0-200 40-280 115-75 80-115 175-115 280 0 45 5 90 20 130l245-110c25-10 50-20 75-35l55-25 45-20c10-5 15-15 15-30 0-35-30-50-60-50-45 0-75 15-105 45l-65-65c40-35 90-55 145-55v-75h55v75c65 5 120 45 130 105l180-80c-10-30-35-60-60-85z m-145 280c-25 10-50 20-75 35l-40 20-65 25c0 5-5 10-5 15 0 30 35 35 60 35 30 0 60-10 80-30l65 65c-40 30-85 40-120 45v75h-55v-75c-60 0-110-30-125-85l-185 85c15 25 35 45 55 65 75 75 165 115 275 115 110 0 200-40 280-115 75-75 115-170 115-280 0-35-5-70-10-105l-250 110z" horiz-adv-x="1000" />

<glyph glyph-name="creative-commons-public-domain" unicode="&#xe867;" d="M840 690c-90 95-205 140-340 140-135 0-245-45-340-140-95-95-140-210-140-340 0-130 45-245 140-340 95-95 205-140 340-140 130 0 245 50 345 145 90 90 135 205 135 335 0 135-45 250-140 340z m-60-615c-80-80-175-120-280-120-105 0-200 40-280 115-75 80-115 175-115 280 0 105 40 200 120 280 75 75 165 115 275 115 110 0 200-40 280-115 75-75 115-170 115-280 0-110-40-200-115-275z m-375 410h-130v-265h65v85h50c90 0 110 55 110 90 5 55-20 90-95 90z m-10-130h-55v80h55c30 0 45-15 45-40 0-20-15-40-45-40z m230 130h-105v-265h105c80 0 135 40 135 135 0 90-55 130-135 130z m0-210h-40v155h40c50 0 70-35 70-75 0-45-20-80-70-80z" horiz-adv-x="1000" />

<glyph glyph-name="creative-commons-remix" unicode="&#xe868;" d="M840 690c-90 95-205 140-340 140-135 0-245-45-340-140-95-95-140-210-140-340 0-130 45-245 140-340 95-95 205-140 340-140 130 0 245 50 345 145 90 90 135 205 135 335 0 135-45 250-140 340z m-60-615c-80-80-175-120-280-120-105 0-200 40-280 115-75 80-115 175-115 280 0 105 40 200 120 280 75 75 165 115 275 115 110 0 200-40 280-115 75-75 115-170 115-280 0-110-40-200-115-275z m35 265l-95 40v120l-295 120-130-55v-135l0 0-115-50v-125l125-55 125 50 5 0 250-105 5 0 5 0 115 50 10 5v135l-5 5z m-135-155l0 0 0 0-220 90v85l220-90v-5l0 0v-80z m10 110l-70 30 80 30 70-30-80-30z m105-75l-85-35v85l85 35v-85z" horiz-adv-x="1000" />

<glyph glyph-name="creative-commons-share" unicode="&#xe869;" d="M840 690c-90 95-205 140-340 140-135 0-245-45-340-140-95-95-140-210-140-340 0-130 45-245 140-340 95-95 205-140 340-140 130 0 245 50 345 145 90 90 135 205 135 335 0 135-45 250-140 340z m-60-615c-80-80-175-120-280-120-105 0-200 40-280 115-75 80-115 175-115 280 0 105 40 200 120 280 75 75 165 115 275 115 110 0 200-40 280-115 75-75 115-170 115-280 0-110-40-200-115-275z m-85 415h-105v100c0 15-10 25-25 25h-260c0 0 0 0 0 0-15 0-25-15-25-25v-355c0-15 10-25 25-25h105v-105c0-15 10-25 25-25h260c15 0 25 10 25 25v355c5 15-10 30-25 30z m-265 0c-15 0-25-15-25-25v-195h-75v300h210v-80h-110c5 0 5 0 0 0z m240-355h-210v300h210v-300z" horiz-adv-x="1000" />

<glyph glyph-name="creative-commons-sharealike" unicode="&#xe86a;" d="M840 690c-90 95-205 140-340 140-135 0-245-45-340-140-95-95-140-210-140-340s45-245 140-340c95-95 205-140 340-140 130 0 245 50 345 145 90 90 135 205 135 335s-45 250-140 340z m-60-615c-80-80-175-120-280-120-105 0-200 40-280 115-75 80-115 175-115 280s40 200 120 280c75 75 165 115 275 115s200-40 280-115c75-75 115-170 115-280 0-110-40-200-115-275z m-35 270c0-145-100-255-250-255-105 0-195 65-210 190h120c5-65 45-85 105-85 70 0 115 65 115 160 0 100-40 155-110 155-55 0-100-20-110-85l35 0-95-95-95 90 40 0c20 120 105 185 210 185 150 0 245-115 245-260z" horiz-adv-x="1000" />

<glyph glyph-name="creative-commons" unicode="&#xe86b;" d="M440 310l55-30c-10-20-30-40-50-55-20-15-45-20-70-20-40 0-75 10-100 40-25 25-35 60-35 105 0 45 15 80 40 105 20 25 55 40 95 40 55 0 100-20 120-65l-60-35c-10 15-15 25-25 30s-20 5-25 5c-40 0-60-25-60-80 0-25 5-45 15-60 10-15 25-20 45-20 25 0 45 10 55 40z m210-40c-20 0-35 5-45 20-10 15-15 35-15 60 0 55 20 80 60 80 10 0 20-5 25-10 10-5 20-15 25-30l60 30c-25 45-65 65-120 65-40 0-70-15-95-40-25-25-40-60-40-105 0-45 10-80 35-105 25-25 60-40 100-40 25 0 50 5 70 20 20 15 40 30 50 55l-60 30c-5-20-25-30-50-30z m330 80c0-135-45-245-135-335-95-95-210-145-345-145-130 0-245 45-340 140-95 95-140 205-140 340 0 130 45 245 140 340 95 95 205 140 340 140 135 0 250-45 340-140 95-90 140-205 140-340z m-85 0c0 110-40 200-115 280-80 75-170 115-280 115-110 0-200-40-275-115-80-80-120-175-120-280 0-105 40-200 115-275 80-80 170-115 280-115 105 0 200 40 280 120 75 70 115 160 115 270z" horiz-adv-x="1000" />

<glyph glyph-name="credit-card" unicode="&#xe86c;" d="M900 700h-800c-55 0-100-45-100-100v-500c0-55 45-100 100-100h800c55 0 100 45 100 100v500c0 55-45 100-100 100z m0-600h-800v300h800v-300z m0 450h-800v50h800v-50z m-700-255v-30h30v30h-30z m180-60v-30h60v30h30v30h30v30h-60v-30h-30v-30h-30z m120-30v30h-30v-30h30z m-150 0v30h-60v-30h60z m30 60h30v30h-60v-60h30v30z m-120-30h30v30h30v30h-60v-30h-30v-30h-30v-30h60v30z" horiz-adv-x="1000" />

<glyph glyph-name="credit" unicode="&#xe86d;" d="M550 12v-112h-100v107c-86 5-153 30-212 90l86 87c43-43 101-58 164-58 78 0 120 30 120 85 0 24-6 45-21 58-13 13-28 20-60 24l-82 12c-58 9-101 27-132 57-32 33-48 77-48 135 0 108 69 187 185 205v98h100v-97c69-7 123-31 171-77l-84-84c-43 41-95 47-140 47-70 0-104-39-104-87 0-17 5-36 20-49 13-13 35-23 63-27l80-12c62-8 101-26 129-53 37-35 53-85 53-146 0-112-78-183-188-203z" horiz-adv-x="1000" />

<glyph glyph-name="crop" unicode="&#xe86e;" d="M300 150v650h-100v-150h-150v-100h150v-400c0-55 45-100 100-100h400v-150h100v150h150v100h-650z m400 50h100v350c0 55-45 100-100 100h-350v-100h350v-350z" horiz-adv-x="1000" />

<glyph glyph-name="cross" unicode="&#xe86f;" d="M717 108c-23-24-61-24-84 0l-133 151-133-151c-23-24-61-24-84 0-24 23-24 61 0 85l138 157-138 158c-24 23-24 61 0 84 23 24 61 24 84 0l133-151 133 151c23 24 61 24 84 0 24-23 24-61 0-84l-137-158 137-157c24-24 24-62 0-85z" horiz-adv-x="1000" />

<glyph glyph-name="cup" unicode="&#xe870;" d="M500 800c-214 0-347-70-340-128l72-673c3-23 111-99 268-99 157 0 265 76 268 99l72 673c7 58-126 128-340 128z m0-215c-157 1-268 56-268 77 0 21 111 77 268 77 157 0 268-56 268-77 0-21-111-76-268-77z" horiz-adv-x="1000" />

<glyph glyph-name="cw" unicode="&#xe871;" d="M966 350h-119v10c-5 222-186 400-408 400-226 0-409-184-409-410s183-410 409-410c95 0 182 33 251 87l-70 75c-51-37-113-59-181-59-170 0-307 137-307 307s137 308 307 308c166 0 301-133 306-298v-10h-134l175-195 180 195z" horiz-adv-x="1000" />

<glyph glyph-name="cycle" unicode="&#xe872;" d="M276 139c-113 121-111 312 6 430 48 49 108 78 171 87l-3 104c-88-11-173-50-240-117-158-159-160-415-7-577l-87-88 276-15-1 292-115-116z m332 598l1-292 115 116c113-122 111-312-6-430-48-49-108-78-171-87l4-104c87 11 172 50 240 118 157 158 159 414 6 576l87 88-276 15z" horiz-adv-x="1000" />

<glyph glyph-name="database" unicode="&#xe873;" d="M836 218c-42-68-176-118-336-118-160 0-294 50-336 118-9 14-14 7-14 0 0-8 0-100 0-100 0-97 157-198 350-198s350 101 350 197c0 0 0 93 0 101 0 7-5 14-14 0z m1 256c-42-60-177-105-337-105-160 0-295 45-337 105-8 12-13 5-13 0 0-6 0-118 0-118 0-88 157-159 350-159s350 71 350 159c0 0 0 112 0 118 0 5-5 12-13 0z m-337 326c-193 0-350-59-350-132v-63c0-77 157-139 350-139s350 62 350 139v63c0 73-157 132-350 132z" horiz-adv-x="1000" />

<glyph glyph-name="dial-pad" unicode="&#xe874;" d="M300 850h-100c-28 0-50-22-50-50v-100c0-28 22-50 50-50h100c28 0 50 22 50 50v100c0 28-22 50-50 50z m250 0h-100c-28 0-50-22-50-50v-100c0-28 22-50 50-50h100c28 0 50 22 50 50v100c0 28-22 50-50 50z m250 0h-100c-28 0-50-22-50-50v-100c0-28 22-50 50-50h100c28 0 50 22 50 50v100c0 28-22 50-50 50z m-500-250h-100c-28 0-50-22-50-50v-100c0-28 22-50 50-50h100c28 0 50 22 50 50v100c0 28-22 50-50 50z m250 0h-100c-28 0-50-22-50-50v-100c0-28 22-50 50-50h100c28 0 50 22 50 50v100c0 28-22 50-50 50z m250 0h-100c-28 0-50-22-50-50v-100c0-28 22-50 50-50h100c28 0 50 22 50 50v100c0 28-22 50-50 50z m-500-250h-100c-28 0-50-22-50-50v-100c0-28 22-50 50-50h100c28 0 50 22 50 50v100c0 28-22 50-50 50z m250 0h-100c-28 0-50-22-50-50v-100c0-28 22-50 50-50h100c28 0 50 22 50 50v100c0 28-22 50-50 50z m0-300h-100c-28 0-50-22-50-50v-100c0-28 22-50 50-50h100c28 0 50 22 50 50v100c0 28-22 50-50 50z m250 300h-100c-28 0-50-22-50-50v-100c0-28 22-50 50-50h100c28 0 50 22 50 50v100c0 28-22 50-50 50z" horiz-adv-x="1000" />

<glyph glyph-name="direction" unicode="&#xe875;" d="M903 753c-29 29-57 2-152-44-254-122-696-370-696-370l380-54 54-380c0 0 248 442 370 696 46 95 73 123 44 152z m-91-98l-276-512-28 233 304 279z" horiz-adv-x="1000" />

<glyph glyph-name="document-landscape" unicode="&#xe876;" d="M950 700h-900c-28 0-50-22-50-50v-600c0-28 22-50 50-50h900c28 0 50 22 50 50v600c0 28-22 50-50 50z m-50-600h-800v500h800v-500z" horiz-adv-x="1000" />

<glyph glyph-name="document" unicode="&#xe877;" d="M800 800h-600c-28 0-50-22-50-50v-800c0-28 22-50 50-50h600c28 0 50 22 50 50v800c0 28-22 50-50 50z m-50-800h-500v700h500v-700z" horiz-adv-x="1000" />

<glyph glyph-name="documents" unicode="&#xe878;" d="M970 479l-372 100-65 243c-6 20-28 32-49 27l-454-122c-21-6-34-27-29-47l162-603c5-20 27-32 48-26l181 48-25-92c-5-20 8-41 29-47l406-109c21-5 43 6 48 27l149 554c5 20-8 42-29 47z m-888 190l391 104 145-541-391-104-145 541z m702-742l-341 93 27 100 195 53c22 5 35 26 29 47l-75 281 297-82-132-492z" horiz-adv-x="1000" />

<glyph glyph-name="dot-single" unicode="&#xe879;" d="M390 350c0-61 49-110 110-110s110 49 110 110c0 61-49 110-110 110s-110-49-110-110z" horiz-adv-x="1000" />

<glyph glyph-name="dots-three-horizontal" unicode="&#xe87a;" d="M500 460c-61 0-110-49-110-110s49-110 110-110c61 0 110 49 110 110s-49 110-110 110z m-350 0c-61 0-110-49-110-110s49-110 110-110c61 0 110 49 110 110s-49 110-110 110z m700 0c-61 0-110-49-110-110s49-110 110-110c61 0 110 49 110 110s-49 110-110 110z" horiz-adv-x="1000" />

<glyph glyph-name="dots-three-vertical" unicode="&#xe87b;" d="M500 460c-61 0-110-49-110-110s49-110 110-110c61 0 110 49 110 110s-49 110-110 110z m0 130c61 0 110 49 110 110s-49 110-110 110c-61 0-110-49-110-110s49-110 110-110z m0-480c-61 0-110-49-110-110s49-110 110-110c61 0 110 49 110 110s-49 110-110 110z" horiz-adv-x="1000" />

<glyph glyph-name="dots-two-horizontal" unicode="&#xe87c;" d="M700 460c-61 0-110-49-110-110s49-110 110-110c61 0 110 49 110 110s-49 110-110 110z m-400 0c-61 0-110-49-110-110s49-110 110-110c61 0 110 49 110 110s-49 110-110 110z" horiz-adv-x="1000" />

<glyph glyph-name="dots-two-vertical" unicode="&#xe87d;" d="M500 440c61 0 110 49 110 110s-49 110-110 110c-61 0-110-49-110-110s49-110 110-110z m0-180c-61 0-110-49-110-110s49-110 110-110c61 0 110 49 110 110s-49 110-110 110z" horiz-adv-x="1000" />

<glyph glyph-name="download" unicode="&#xe87e;" d="M750 500h-150v300h-200v-300h-150l250-250 250 250z m217-327c-11 12-81 87-101 106-13 13-32 21-52 21h-88l154-150h-178c-5 0-9-2-12-6l-40-94h-300l-40 94c-3 4-7 6-12 6h-178l154 150h-88c-20 0-39-8-52-21-20-19-90-94-101-106-24-26-38-46-31-72l28-154c6-25 34-47 62-47h816c28 0 56 22 62 47l29 154c6 26-8 46-32 72z" horiz-adv-x="1000" />

<glyph glyph-name="drink" unicode="&#xe87f;" d="M877 718c20 27 23 82 23 82h-800c0 0 3-55 23-82l327-418v-300h-100c-100 0-100-100-100-100h500c0 0 0 100-100 100h-100v300l327 418z m-407-168c0 44 36 80 80 80s80-36 80-80c0-44-36-80-80-80s-80 36-80 80z" horiz-adv-x="1000" />

<glyph glyph-name="drive" unicode="&#xe880;" d="M953 305l-159 396c-11 30-40 49-71 49h-446c-31 0-60-19-71-49l-159-396c-14-36-19-75-12-113l29-177c7-38 39-65 76-65h720c37 0 70 27 76 65l29 177c7 38 2 77-12 113z m-105-217c-4-22-22-38-45-38h-606c-22 0-41 16-45 38l-18 109c-5 28 16 53 44 53h644c28 0 49-25 44-53l-18-109z" horiz-adv-x="1000" />

<glyph glyph-name="drop" unicode="&#xe881;" d="M510 822c-1 11-19 11-20 0-44-355-270-429-270-676 0-152 128-276 280-276 152 0 280 124 280 276 0 247-226 321-270 676z m-42-393c-3-11-7-22-10-34-20-71-43-152-43-245 0-51-30-69-58-69-31 0-57 27-57 59 0 110 53 182 100 246 14 20 28 38 40 57 5 9 19 8 25 0 3-4 4-9 3-14z" horiz-adv-x="1000" />

<glyph glyph-name="edit" unicode="&#xe882;" d="M878 728c-72 72-126 61-126 61l-303-302-338-339-51-238 238 51 339 338 303 303c-1 0 10 54-62 126z m-594-739l-81-17c-8 14-17 29-35 46-17 18-32 27-46 35l17 81 24 23c0 0 44 0 94-50 50-50 51-94 51-94l-24-24z" horiz-adv-x="1000" />

<glyph glyph-name="email" unicode="&#xe883;" d="M730 241c0-42 12-58 44-58 69 0 114 88 114 236 0 226-165 334-370 334-211 0-403-142-403-410 0-255 168-394 426-394 87 0 146 9 236 39l19-80c-88-29-183-37-256-37-339 0-520 186-520 472 0 290 210 487 499 487 301 0 461-180 461-401 0-187-59-330-244-330-84 0-139 33-146 108-22-83-79-108-157-108-105 0-192 80-192 242 0 163 77 264 215 264 73 0 118-29 139-74l35 63h100v-353h0z m-147 159c0 66-49 93-90 93-45 0-94-36-94-141 0-84 37-131 94-131 39 0 90 25 90 95v84z" horiz-adv-x="1000" />

<glyph glyph-name="emoji-flirt" unicode="&#xe884;" d="M375 363c42 0 75 39 75 87s-33 88-75 88-75-40-75-88 34-87 75-87z m125 467c-265 0-480-215-480-480 0-265 215-480 480-480 265 0 480 215 480 480 0 265-215 480-480 480z m0-860c-210 0-380 170-380 380 0 210 170 380 380 380s380-170 380-380c0-210-170-380-380-380z m217 313c-18 10-41 2-50-16-2-3-44-79-167-79-122 0-164 75-167 79-9 18-31 26-50 17-18-10-26-32-17-51 3-5 63-120 234-120 171 0 231 115 234 120 9 19 1 41-17 50z m-154 130h125c20 0 37 16 37 37 0 21-17 38-37 38h-125c-21 0-38-17-38-38 0-21 17-37 38-37z" horiz-adv-x="1000" />

<glyph glyph-name="emoji-happy" unicode="&#xe885;" d="M500 830c-265 0-480-215-480-480 0-265 215-480 480-480 265 0 480 215 480 480 0 265-215 480-480 480z m0-860c-210 0-380 170-380 380s170 380 380 380c210 0 380-170 380-380s-170-380-380-380z m-125 393c42 0 75 39 75 87s-34 88-75 88-75-40-75-88 34-87 75-87z m250 0c42 0 75 39 75 87s-34 88-75 88-75-40-75-88 34-87 75-87z m92-80c-18 10-41 2-50-16-2-3-44-79-167-79-122 0-164 75-167 79-9 18-31 26-50 17-18-10-26-32-17-51 3-5 63-120 234-120 171 0 231 115 234 120 9 19 1 41-17 50z" horiz-adv-x="1000" />

<glyph glyph-name="emoji-neutral" unicode="&#xe886;" d="M500 830c-265 0-480-215-480-480 0-265 215-480 480-480 265 0 480 215 480 480 0 265-215 480-480 480z m0-860c-210 0-380 170-380 380 0 210 170 380 380 380 210 0 380-170 380-380 0-210-170-380-380-380z m125 567c-41 0-75-39-75-87s34-87 75-87c42 0 75 39 75 87s-33 87-75 87z m-250-174c42 0 75 39 75 87s-34 88-75 88c-41 0-75-40-75-88s34-87 75-87z m275-125h-300c-21 0-37-17-37-38 0-21 16-37 37-37h300c21 0 38 16 38 37 0 21-17 38-38 38z" horiz-adv-x="1000" />

<glyph glyph-name="emoji-sad" unicode="&#xe887;" d="M500 830c-265 0-480-215-480-480 0-265 215-480 480-480 265 0 480 215 480 480 0 265-215 480-480 480z m0-860c-210 0-380 170-380 380 0 210 170 380 380 380 210 0 380-170 380-380 0-210-170-380-380-380z m125 393c41 0 75 39 75 87s-34 88-75 88c-41 0-75-40-75-88s34-87 75-87z m-250 0c42 0 75 39 75 87s-33 88-75 88c-41 0-75-40-75-88s34-87 75-87z m125-75c-171 0-231-116-233-121-10-19-2-41 16-50 6-3 11-4 17-4 14 0 27 7 34 20 0 1 41 80 166 80 123 0 165-77 167-80 9-18 31-26 50-17 18 10 26 32 17 51-3 5-63 121-234 121z" horiz-adv-x="1000" />

<glyph glyph-name="erase" unicode="&#xe888;" d="M900 700h-478c-22 0-53-12-70-26l-340-298c-16-14-16-38 0-52l340-298c17-14 48-26 70-26h478c55 0 100 45 100 100v500c0 55-45 100-100 100z m-140-550l-128 128-128-128-72 72 128 128-128 128 72 72 128-128 128 128 72-72-128-128 128-128-72-72z" horiz-adv-x="1000" />

<glyph glyph-name="eraser" unicode="&#xe889;" d="M850 641l-158 121c-43 34-106 26-140-18l-420-545c-34-43-25-106 18-140l158-121c43-34 107-26 140 18l420 545c34 43 26 106-18 140z m-423-614l-26-34c-8-10-20-16-32-16-7 0-16 2-25 8l-157 122c-9 6-14 15-15 26-2 11 1 21 7 30l27 34c8 9 20 15 32 15 6 0 16-1 25-8l157-121c9-7 14-16 15-27 2-10-1-21-8-29z" horiz-adv-x="1000" />

<glyph glyph-name="export" unicode="&#xe88a;" d="M750 100h-650v450h130c0 0 34 45 108 100h-288c-28 0-50-22-50-50v-550c0-28 22-50 50-50h750c28 0 50 22 50 50v187l-100-82v-55z m-82 348v-178l332 260-332 250v-157c-403 0-403-398-403-398 114 187 184 223 403 223z" horiz-adv-x="1000" />

<glyph glyph-name="eye-with-line" unicode="&#xe88b;" d="M926 776c-19 20-51 20-71 0l-781-781c-20-20-20-52 0-71 20-20 51-20 71 0l781 781c20 20 20 52 0 71z m-771-601l128 128c-3 15-5 31-5 47 0 119 99 215 222 215 14 0 28-1 42-4l60 60c-32 6-66 9-102 9-328 0-500-242-500-280 0-21 53-104 155-175z m690 350l-128-128c3-15 5-31 5-47 0-119-99-215-222-215-14 0-28 1-41 4l-61-60c33-6 66-9 102-9 328 0 500 242 500 280 0 21-53 105-155 175z" horiz-adv-x="1000" />

<glyph glyph-name="eye" unicode="&#xe88c;" d="M500 630c-328 0-500-242-500-280 0-38 172-280 500-280 328 0 500 242 500 280 0 38-172 280-500 280z m0-495c-123 0-222 96-222 215 0 119 99 215 222 215 123 0 222-96 222-215 0-119-99-215-222-215z m0 215c-20 22 33 108 0 108-61 0-111-49-111-108 0-59 50-108 111-108 61 0 111 49 111 108 0 27-94-19-111 0z" horiz-adv-x="1000" />

<glyph glyph-name="feather" unicode="&#xe88d;" d="M213-128c15 49 38 118 69 218 136 21 192-17 278 136-70-21-154 40-150 66 5 27 196-19 321 159-158-35-208 42-188 53 47 27 186 11 261 84 38 37 56 128 40 160-18 39-132 97-195 92-63-6-162-240-191-238-29 2-35 105 16 201-54-24-153-98-184-162-57-118 6-388-14-398-21-9-89 124-109 185-28-93-28-186 53-310-31-81-48-174-50-222-1-38 36-46 43-24z" horiz-adv-x="1000" />

<glyph glyph-name="fingerprint" unicode="&#xe88e;" d="M484 458c-19-5-30-25-26-45 36-167 44-341 23-505-3-20 10-39 29-42 2 0 4-1 5-1 17 0 32 14 34 33 23 172 15 356-23 532-5 20-23 32-42 28z m-81-212c-19-2-33-20-31-40 9-99 6-196-7-289-2-21 11-40 30-43 1 0 3 0 5 0 17 0 32 13 34 32 14 99 16 202 7 307-1 20-19 36-38 33z m55 333c-39-9-73-35-94-72-21-37-28-81-19-123 5-20 9-41 12-61 4-21 22-34 41-30 18 3 31 23 27 43-3 22-7 44-12 65-5 23-1 46 10 66 12 20 30 34 51 39 43 11 87-18 97-65 37-173 47-347 29-516-2-20 11-39 30-41 2 0 3-1 4-1 18 0 33 15 35 34 19 177 9 359-30 541-19 87-100 141-181 121z m-121-26c12 16 10 40-5 52-15 13-37 10-49-6-6-8-12-17-17-26-38-65-50-142-34-217 30-138 37-280 21-410-3-20 10-39 29-42 2 0 3 0 5 0 17 0 32 13 34 32 18 139 11 290-21 437-12 55-3 112 25 160 4 7 8 14 12 20z m419-344c-20-1-34-19-33-39 3-69 2-139-3-207-2-21 12-39 31-40 1 0 2 0 3 0 18 0 33 14 35 34 5 71 6 144 3 217-1 20-18 36-36 35z m-9 52c2 0 3 0 4 0 19 3 33 21 31 42-7 61-18 123-31 183-27 129-137 222-261 222-19 0-39-2-58-7-16-4-31-9-46-16-18-8-26-31-18-50 7-19 28-27 45-19 11 5 23 9 35 12 13 4 28 5 42 5 92 0 173-69 194-164 12-58 22-117 29-175 2-19 17-33 34-33z m117 253c-16 74-51 141-101 196-13 15-35 15-49 0-14-15-14-39 0-53 41-45 70-101 82-161 33-150 47-304 43-455 0-20 15-41 34-41h1c19 0 34 19 35 39 4 157-11 319-45 475z m-694-307c1 0 3 0 5 1 19 3 32 22 29 42-4 31-10 63-17 95-19 87-5 178 40 255 44 76 113 129 194 150 71 17 145 7 210-28 17-9 38-2 47 17 8 18 1 41-16 50-79 43-170 55-256 34-100-25-184-90-238-184-54-93-71-204-48-311 6-30 11-60 15-89 3-18 18-32 35-32z m10-57h-1c-19 0-34-12-34-33 2-43 0-79-3-120-2-20 12-39 31-41 1 0 2 0 3 0 18 0 33 12 35 32 4 43 5 86 4 131-1 21-16 31-35 31z" horiz-adv-x="1000" />

<glyph glyph-name="flag" unicode="&#xe88f;" d="M946 571c-467-679-307 13-702-318l90-353h-101l-183 721 93 33c442 323 211-291 781-63 19 7 33-4 22-20z" horiz-adv-x="1000" />

<glyph glyph-name="flash" unicode="&#xe890;" d="M340-100c-10 6 158 358 152 374-6 15-183 71-192 99-9 27 351 435 360 427 9-8-156-362-152-373 5-12 186-71 192-99 6-29-350-434-360-428z" horiz-adv-x="1000" />

<glyph glyph-name="flashlight" unicode="&#xe891;" d="M856 706c-84 84-189 114-223 81l-134-135c-21-21-39-89-31-158l-408-408c-24-24-4-83 44-132 49-48 108-68 132-44l408 409c69-9 137 9 158 30l135 134c33 34 3 139-81 223z m-449-408c-19 19-12 55 14 81 26 26 62 32 80 13 19-18 13-54-13-80-26-27-62-33-81-14z m338 297c-65 64-82 150-76 156 6 6 88-14 153-79 65-65 85-147 79-153-6-5-92 11-156 76z" horiz-adv-x="1000" />

<glyph glyph-name="flat-brush" unicode="&#xe892;" d="M92 106c25-19 80 59 97 45 18-13-41-88-26-99 15-11 76 62 93 49 16-12-41-88-22-102 18-14 78 60 92 49 15-11-38-90-22-103 17-12 74 64 88 53 14-10-42-87-17-106 25-19 269 448 269 448l-194 147c0 0-383-363-358-381z m559 703l-168-258 206-156 220 213c-26 75-172 192-258 201z" horiz-adv-x="1000" />

<glyph glyph-name="flow-branch" unicode="&#xe893;" d="M820 650c0 66-54 120-120 120s-120-54-120-120c0-48 28-89 69-108-4-79-63-106-166-145-44-16-92-35-133-62v206c41 19 70 61 70 109 0 66-54 120-120 120s-120-54-120-120c0-48 29-90 70-109v-382c-41-19-70-61-70-109 0-66 54-120 120-120s120 54 120 120c0 48-28 89-69 108 4 80 63 107 167 145 101 38 227 86 232 238 41 19 70 60 70 109z m-520 69c38 0 69-31 69-69 0-38-31-69-69-69-38 0-69 31-69 69 0 38 31 69 69 69z m0-738c-38 0-69 31-69 69 0 38 31 69 69 69 38 0 69-31 69-69 0-38-31-69-69-69z m400 600c-38 0-69 31-69 69 0 38 31 69 69 69 38 0 69-31 69-69 0-38-31-69-69-69z" horiz-adv-x="1000" />

<glyph glyph-name="flow-cascade" unicode="&#xe894;" d="M700 120c-48 0-90-29-109-70h-166c-41 0-75 34-75 75v193c23-11 48-18 75-18h166c19-41 61-70 109-70 66 0 120 54 120 120s-54 120-120 120c-48 0-90-29-109-70h-166c-41 0-75 34-75 75v116c41 19 70 61 70 109 0 66-54 120-120 120s-120-54-120-120c0-48 29-90 70-109v-466c0-97 78-175 175-175h166c19-41 61-70 109-70 66 0 120 54 120 120s-54 120-120 120z m0 299c38 0 69-31 69-69 0-38-31-69-69-69-38 0-69 31-69 69 0 38 31 69 69 69z m-400 350c38 0 69-31 69-69 0-38-31-69-69-69-38 0-69 31-69 69 0 38 31 69 69 69z m400-838c-38 0-69 31-69 69 0 38 31 69 69 69 38 0 69-31 69-69 0-38-31-69-69-69z" horiz-adv-x="1000" />

<glyph glyph-name="flow-line" unicode="&#xe895;" d="M550 159v382c41 19 70 61 70 109 0 66-54 120-120 120s-120-54-120-120c0-48 29-90 70-109v-382c-41-19-70-61-70-109 0-66 54-120 120-120s120 54 120 120c0 48-29 90-70 109z m-50 560c38 0 69-31 69-69 0-38-31-69-69-69-38 0-69 31-69 69 0 38 31 69 69 69z m0-738c-38 0-69 31-69 69 0 38 31 69 69 69 38 0 69-31 69-69 0-38-31-69-69-69z" horiz-adv-x="1000" />

<glyph glyph-name="flow-parallel" unicode="&#xe896;" d="M420 650c0 66-54 120-120 120s-120-54-120-120c0-48 29-90 70-109v-382c-41-19-70-61-70-109 0-66 54-120 120-120s120 54 120 120c0 48-29 90-70 109v382c41 19 70 61 70 109z m-51-600c0-38-31-69-69-69-38 0-69 31-69 69 0 38 31 69 69 69 38 0 69-31 69-69z m-69 531c-38 0-69 31-69 69 0 38 31 69 69 69 38 0 69-31 69-69 0-38-31-69-69-69z m450-422v382c41 19 70 61 70 109 0 66-54 120-120 120s-120-54-120-120c0-48 29-90 70-109v-382c-41-19-70-61-70-109 0-66 54-120 120-120s120 54 120 120c0 48-29 90-70 109z m-119 491c0 38 31 69 69 69 38 0 69-31 69-69 0-38-31-69-69-69-38 0-69 31-69 69z m69-669c-38 0-69 31-69 69 0 38 31 69 69 69 38 0 69-31 69-69 0-38-31-69-69-69z" horiz-adv-x="1000" />

<glyph glyph-name="flow-tree" unicode="&#xe897;" d="M900 109v116c0 97-78 175-175 175h-100c-41 0-75 34-75 75v116c41 19 70 61 70 109 0 66-54 120-120 120s-120-54-120-120c0-48 29-90 70-109v-116c0-41-34-75-75-75h-100c-97 0-175-78-175-175v-116c-41-19-70-61-70-109 0-66 54-120 120-120s120 54 120 120c0 48-29 90-70 109v116c0 41 34 75 75 75h100c27 0 52 7 75 18v-209c-41-19-70-61-70-109 0-66 54-120 120-120s120 54 120 120c0 48-29 90-70 109v209c23-11 48-18 75-18h100c41 0 75-34 75-75v-116c-41-19-70-61-70-109 0-66 54-120 120-120s120 54 120 120c0 48-29 90-70 109z m-400 660c38 0 69-31 69-69 0-38-31-69-69-69-38 0-69 31-69 69 0 38 31 69 69 69z m-350-838c-38 0-69 31-69 69 0 38 31 69 69 69 38 0 69-31 69-69 0-38-31-69-69-69z m350 0c-38 0-69 31-69 69 0 38 31 69 69 69 38 0 69-31 69-69 0-38-31-69-69-69z m350 0c-38 0-69 31-69 69 0 38 31 69 69 69 38 0 69-31 69-69 0-38-31-69-69-69z" horiz-adv-x="1000" />

<glyph glyph-name="flower" unicode="&#xe898;" d="M633 412c22 54-18 125-60 170 16 60 18 141-27 179-45 38-125 22-180-5-52 34-129 61-179 30-49-31-59-112-51-173-48-38-98-103-84-160s89-91 150-102c21-58 67-125 126-129 41-3 81 26 111 63 61-76 104-157 128-235-36 54-111 100-267 100 0-208 152-250 250-250l160 0c0 136-49 295-164 445 39 12 73 34 87 67z m-219 11c-57-36-133-18-168 39-36 57-19 133 39 169s132 18 168-39c36-58 19-133-39-169z m287-185c54-109 83-223 84-336 165 119 165 338 165 548 0 0-183-52-249-212z" horiz-adv-x="1000" />

<glyph glyph-name="folder-images" unicode="&#xe899;" d="M920 710c-5 22-33 40-60 40h-720c-27 0-55-18-60-40l-10-60h860l-10 60z m51-110h-942c-17 0-30-15-28-32l46-583c2-20 18-35 38-35h830c20 0 36 15 38 35l47 583c1 17-12 32-29 32z m-349-169c26 0 47-21 47-47 0-26-21-47-47-47s-47 22-47 47c0 26 21 47 47 47z m-347-281l124 286 142-229 121 60 63-117h-450z" horiz-adv-x="1000" />

<glyph glyph-name="folder-music" unicode="&#xe89a;" d="M920 710c-5 22-33 40-60 40h-720c-27 0-55-18-60-40l-10-60h860l-10 60z m51-110h-942c-17 0-30-15-28-32l46-583c2-20 18-35 38-35h830c20 0 36 15 38 35l47 583c1 17-12 32-29 32z m-374-376c-6-13-13-14-10 0 7 36 2 113-52 122v-165c0-33-16-63-57-76-40-13-85 0-95 29-11 29 13 64 52 78 22 8 48 11 65 4v234h35c0-82 141-64 62-226z" horiz-adv-x="1000" />

<glyph glyph-name="folder-video" unicode="&#xe89b;" d="M920 710c-5 22-33 40-60 40h-720c-27 0-55-18-60-40l-10-60h860l-10 60z m51-110h-942c-17 0-30-15-28-32l46-583c2-20 18-35 38-35h830c20 0 36 15 38 35l47 583c1 17-12 32-29 32z m-571-450v250l219-125-219-125z" horiz-adv-x="1000" />

<glyph glyph-name="folder" unicode="&#xe89c;" d="M920 610c-5 22-32 40-60 40h-341c-28 0-66 16-86 35l-30 30c-19 19-58 35-86 35h-163c-27 0-53-22-56-50l-14-150h846l-10 60z m51-110h-942c-17 0-30-15-28-32l46-483c2-20 18-35 38-35h830c20 0 36 15 38 35l47 483c1 17-12 32-29 32z" horiz-adv-x="1000" />

<glyph glyph-name="forward" unicode="&#xe89d;" d="M600 256v-218l350 335-350 329v-200c-439 0-550-486-550-486 124 219 312 240 550 240z" horiz-adv-x="1000" />

<glyph glyph-name="funnel" unicode="&#xe89e;" d="M500 800c-245 0-400-76-400-150v-100c0-46 300-300 300-300v-300c0-34 50-50 100-50s100 16 100 50v300c0 0 300 254 300 300v100c0 74-155 150-400 150z m0-256c-180 0-307 67-307 91 0 25 128 92 307 92 180 0 307-67 307-92 0-24-127-91-307-91z" horiz-adv-x="1000" />

<glyph glyph-name="game-controller" unicode="&#xe89f;" d="M972 382c-44 246-142 319-195 319-82 0-103-61-277-63-174 2-195 63-277 63-52 0-151-73-195-319-25-141-53-351 12-376 81-31 109 47 198 114 90 67 133 83 262 83 129 0 172-16 262-83 89-67 117-145 198-114 65 26 37 235 12 376z m-672-32c-55 0-100 45-100 100 0 55 45 100 100 100s100-45 100-100c0-55-45-100-100-100z m350 0c-28 0-50 22-50 50s22 50 50 50c28 0 50-22 50-50s-22-50-50-50z m100 100c-28 0-50 22-50 50s22 50 50 50c28 0 50-22 50-50s-22-50-50-50z" horiz-adv-x="1000" />

<glyph glyph-name="gauge" unicode="&#xe8a0;" d="M406 170c-34-60-11-109 37-137 48-27 102-23 137 37 34 60 252 593 233 604-19 11-372-444-407-504z m94 380c22 0 43-2 64-5 22 27 47 57 70 86-42 12-87 19-134 19-280 0-500-236-500-538 0-19 1-37 3-55 2-28 27-48 54-46 27 3 48 27 45 54-1 16-2 31-2 47 0 246 176 438 400 438z m361-62c-14-38-29-76-42-109 51-74 81-166 81-267 0-16-1-32-2-47-3-28 18-52 45-55 2 0 3 0 5 0 25 0 47 20 50 45 1 19 2 38 2 57 0 147-53 279-139 376z" horiz-adv-x="1000" />

<glyph glyph-name="globe" unicode="&#xe8a1;" d="M500 830c-265 0-480-215-480-480 0-265 215-480 480-480 265 0 480 215 480 480 0 265-215 480-480 480z m409-480c0-94-31-180-84-249-15 12-31 43-16 76 15 33 19 110 15 139-3 30-18 102-60 102-42 1-71 15-96 64-52 104 97 124 45 181-14 16-89-66-100 43 0 8 7 20 17 32 162-54 279-208 279-388z m-465 405c-10-19-36-26-52-41-34-31-48-26-67-56-18-30-78-73-78-94s30-47 45-42c15 5 55 5 78-4 24-8 196-16 141-162-17-46-93-38-114-115-3-11-13-59-14-75-1-24 17-116-6-116-24 0-87 82-87 97 0 15-17 67-17 112 0 44-75 43-75 103 0 53 41 80 32 105-10 26-82 27-112 30 53 136 176 238 326 258z m-73-794c25 13 27 30 50 31 25 1 46 10 75 17 25 5 71 31 111 34 34 3 101-1 119-34-65-43-143-68-226-68-45 0-88 7-129 20z" horiz-adv-x="1000" />

<glyph glyph-name="graduation-cap" unicode="&#xe8a2;" d="M165 238c23-94 53-135 151-178 99-43 145-90 184-90 39 0 82 41 181 84 98 43 72 56 95 150l-276-134-335 168z m811 245l-417 233c-32 19-86 19-118 0l-417-233c-32-18-32-48 0-66l417-233c32-19 86-19 118 0l269 150-291 69c-12-3-24-5-37-5-53 0-95 26-95 57 0 31 42 57 95 57 41 0 76-16 89-37l309-101 78 43c32 18 32 48 0 66z m-128-441c-3-20 65-51 71 5 29 253-21 326-21 326l-70-39c0 0 60-56 20-292z" horiz-adv-x="1000" />

<glyph glyph-name="grid" unicode="&#xe8a3;" d="M400 650h-150c-28 0-50-22-50-50v-150c0-28 22-50 50-50h150c28 0 50 22 50 50v150c0 28-22 50-50 50z m350 0h-150c-28 0-50-22-50-50v-150c0-28 22-50 50-50h150c28 0 50 22 50 50v150c0 28-22 50-50 50z m-350-350h-150c-28 0-50-22-50-50v-150c0-28 22-50 50-50h150c28 0 50 22 50 50v150c0 28-22 50-50 50z m350 0h-150c-28 0-50-22-50-50v-150c0-28 22-50 50-50h150c28 0 50 22 50 50v150c0 28-22 50-50 50z" horiz-adv-x="1000" />

<glyph glyph-name="hair-cross" unicode="&#xe8a4;" d="M500 830c-265 0-480-215-480-480 0-265 215-480 480-480 265 0 480 215 480 480 0 265-215 480-480 480z m50-856v226h-100v-226c-170 22-304 156-326 326h226v100h-226c22 170 156 304 326 326v-226h100v226c170-22 304-156 326-326h-226v-100h226c-22-170-156-304-326-326z" horiz-adv-x="1000" />

<glyph glyph-name="hand" unicode="&#xe8a5;" d="M896-16c-3-9-9-18-21-21-8-3-274-80-282-82-24-6-40-2-51 8-16 14-204 142-442 154-25 2-13 98 60 98 50 0 195-36 213-19 13 14 19 94-37 235l0 0-114 281c-11 27 2 58 29 68 27 11 57-2 68-29 0 0 89-221 99-245 10-24 22-34 35-29 11 5 14 13 7 36l-103 301c-9 28 6 57 33 67 27 9 57-6 66-33l97-287c9-25 18-38 32-32 9 4 9 17 6 28l-68 274c-7 28 10 56 38 63 28 7 56-10 63-38l63-252c9-37 18-50 33-47 15 4 14 16 12 27-5 23-44 216-44 216-5 26 12 51 37 56 26 5 51-12 56-37l48-236 0 0c0 0 0 0 0 0l28-141c6-27 13-52 23-77 54-144 26-278 16-307z" horiz-adv-x="1000" />

<glyph glyph-name="heart-outlined" unicode="&#xe8a6;" d="M860 642c-84 77-220 77-303 0l-57-52-57 52c-83 77-219 77-302 0-94-86-94-226 0-312l359-330 360 330c94 86 94 226 0 312z m-54-261l-306-285-306 285c-31 29-43 66-43 105s7 72 38 100c27 25 64 39 103 39 39 0 76-24 103-49l105-91 105 91c27 25 64 49 103 49s76-14 103-39c31-28 38-61 38-100s-12-76-43-105z" horiz-adv-x="1000" />

<glyph glyph-name="heart" unicode="&#xe8a7;" d="M860 642c-84 77-220 77-303 0l-57-52-57 52c-83 77-219 77-302 0-94-86-94-226 0-312l359-330 360 330c94 86 94 226 0 312z" horiz-adv-x="1000" />

<glyph glyph-name="help-with-circle" unicode="&#xe8a8;" d="M500 830c-265 0-480-215-480-480s215-480 480-480c265 0 480 215 480 480 0 265-215 480-480 480z m-8-760h-2c-39 1-67 30-66 69 2 38 30 65 68 65l2 0c40-1 67-30 66-69-1-38-29-65-68-65z m165 327c-9-13-29-30-55-50l-28-19c-15-12-25-23-28-34-3-9-4-11-4-29v-5h-108l1 10c1 37 2 59 17 77 25 28 78 63 80 64 8 6 14 13 19 20 11 15 16 27 16 39 0 17-4 32-14 46-10 13-27 20-53 20-26 0-43-8-54-25-11-17-16-35-16-53v-5h-111l1 5c2 68 27 116 71 145 28 18 64 27 104 27 54 0 99-13 134-39 37-26 55-64 55-115 0-28-9-55-27-79z" horiz-adv-x="1000" />

<glyph glyph-name="help" unicode="&#xe8a9;" d="M705 738c-57 42-129 62-215 62-66 0-121-14-166-43-71-46-109-123-114-231h165c0 32 10 62 28 91 18 30 50 44 94 44 45 0 76-12 93-35 17-24 25-51 25-79 0-26-13-49-28-70-8-12-19-23-33-33 0 0-89-58-129-104-23-27-25-67-27-124 0-5 2-13 16-13 14 0 116 0 129 0 12 0 15 9 15 14 1 21 3 31 7 43 7 23 27 43 49 60l46 32c41 32 73 58 88 79 25 33 42 75 42 125 0 80-28 141-85 182z m-218-634c-57 2-104-38-106-100-1-61 43-102 100-104 60-2 105 36 107 98 2 62-41 104-101 106z" horiz-adv-x="1000" />

<glyph glyph-name="home" unicode="&#xe8aa;" d="M934 300h-84v-300c0-22-10-50-50-50h-200v300h-200v-300h-200c-40 0-50 28-50 50v300h-84c-29 0-23 16-3 37l402 402c9 10 22 15 35 16 13-1 26-6 35-16l402-402c20-21 27-37-3-37z" horiz-adv-x="1000" />

<glyph glyph-name="hour-glass" unicode="&#xe8ab;" d="M780 621c0 107 0 118 0 118 0 39-125 111-280 111-155 0-280-72-280-111 0 0 0-11 0-118 0-107 194-195 194-271 0-76-194-164-194-271 0-107 0-118 0-118 0-39 125-111 280-111 155 0 280 72 280 111 0 0 0 11 0 118 0 107-194 195-194 271 0 76 194 164 194 271z m-483 113c35 22 100 54 206 54 105 0 200-54 200-54 7-5 35-19 16-31-42-25-124-51-219-51-95 0-174 29-216 54-19 11 13 28 13 28z m228-384c0-60 50-98 103-149 38-38 91-89 91-122v-66c-49 24-194 47-194 125 0 39-50 39-50 0 0-78-145-101-194-125v66c0 33 53 84 91 122 53 51 103 89 103 149 0 60-50 98-103 149-38 38-91 89-91 122l-2 50c51-28 132-54 221-54 89 0 170 27 222 54l-3-50c0-33-53-84-91-122-53-51-103-89-103-149z" horiz-adv-x="1000" />

<glyph glyph-name="image-inverted" unicode="&#xe8ac;" d="M900 700h-800c-28 0-50-22-50-50v-600c0-28 22-50 50-50h800c28 0 50 22 50 50v600c0 28-22 50-50 50z m-237-175c34 0 62-28 62-62s-28-63-62-63-63 28-63 63 28 62 63 62z m-463-375l166 381 188-305 162 80 84-156h-600z" horiz-adv-x="1000" />

<glyph glyph-name="image" unicode="&#xe8ad;" d="M950 750h-900c-28 0-50-22-50-50v-700c0-28 22-50 50-50h900c28 0 50 22 50 50v700c0 28-22 50-50 50z m-50-700h-800v600h800v-600z m-184 256l-162-80-188 305-166-381h600l-84 156z m-53 94c34 0 62 28 62 63s-28 62-62 62-63-28-63-62 28-63 63-63z" horiz-adv-x="1000" />

<glyph glyph-name="images" unicode="&#xe8ae;" d="M856 542l-102 281c-8 21-30 32-49 25l-680-248c-20-7-30-30-22-51l107-297v159c0 72 58 131 128 131h180l214 150 124-150h100z m106-92h-724c-21 0-38-17-38-39v-471c0-22 17-40 38-40h724c21 0 38 18 38 40v471c0 22-17 39-38 39z m-62-450h-600v100l99 201 139-172 130 133 166 61 66-173v-150z" horiz-adv-x="1000" />

<glyph glyph-name="inbox" unicode="&#xe8af;" d="M963 373c-20 21-114 113-156 156-14 13-32 21-52 21h-510c-20 0-38-8-51-21-43-43-137-135-157-156-24-26-36-45-31-72s23-133 28-154c4-21 34-47 62-47h808c28 0 58 26 62 47 5 21 23 126 28 154s-7 46-31 72z m-262-23c-5 0-10-3-12-7l-41-93h-296l-41 93c-2 4-7 7-12 7h-175l101 100h550l101-100h-175z" horiz-adv-x="1000" />

<glyph glyph-name="infinity" unicode="&#xe8b0;" d="M795 570c-104 0-218-58-295-146-77 88-191 146-295 146-99 0-205-58-205-220 0-162 106-220 205-220l0 0c104 0 218 58 295 146 77-88 191-146 295-146 99 0 205 58 205 220 0 162-106 220-205 220z m-590-352c-76 0-115 44-115 132 0 88 39 132 115 132 83 0 181-54 240-132-59-78-157-132-240-132z m590 0c-84 0-181 54-240 132 59 78 157 132 240 132 76 0 115-44 115-132 0-88-39-132-115-132z" horiz-adv-x="1000" />

<glyph glyph-name="info-with-circle" unicode="&#xe8b1;" d="M500 830c-265 0-480-215-480-480 0-265 215-480 480-480 265 0 480 215 480 480 0 265-215 480-480 480z m45-173c47 0 60-27 60-58 0-39-31-75-84-75-44 0-65 22-64 59 0 31 26 74 88 74z m-120-594c-32 0-55 19-33 104l37 152c6 24 7 33 0 33-10 0-52-16-76-33l-16 26c78 65 167 103 205 103 32 0 38-37 22-96l-42-159c-8-28-4-37 3-37 10 0 41 11 72 36l18-25c-76-75-158-104-190-104z" horiz-adv-x="1000" />

<glyph glyph-name="info" unicode="&#xe8b2;" d="M622 850c67 0 100-46 100-98 0-65-58-125-134-125-63 0-100 37-99 99 0 52 45 124 133 124z m-207-1000c-52 0-91 33-54 176l61 255c10 41 12 57 0 57-16 0-85-28-126-56l-26 44c129 109 277 173 340 173 53 0 62-63 35-161l-69-268c-12-47-7-63 5-63 16 0 68 19 119 60l30-41c-125-127-262-176-315-176z" horiz-adv-x="1000" />

<glyph glyph-name="install" unicode="&#xe8b3;" d="M953 305l-159 396c-11 30-40 49-71 49h-122l19-203h135l-255-212-255 212h135l19 203h-122c-31 0-60-19-71-49l-159-396c-14-36-19-75-12-113l29-177c7-38 39-65 76-65h720c37 0 70 27 76 65l29 177c7 38 2 77-12 113z m-105-217c-4-22-22-38-45-38h-606c-22 0-41 16-45 38l-18 109c-5 28 16 53 44 53h644c28 0 49-25 44-53l-18-109z" horiz-adv-x="1000" />

<glyph glyph-name="key" unicode="&#xe8b4;" d="M885 614c-26 149-161 248-304 222-142-26-263-141-238-290 6-32 21-82 39-118l-259-386c-10-15-15-40-12-57l16-99c3-17 19-29 35-26l76 14c17 3 37 18 46 32l103 166 1 1 69 13 120 194c39-7 95-5 128 1 143 27 205 184 180 333z m-127-77c-39-58-79-17-135 24-56 41-107 66-67 125 39 58 116 73 172 32 56-41 70-122 30-181z" horiz-adv-x="1000" />

<glyph glyph-name="keyboard" unicode="&#xe8b5;" d="M930 650h-860c-39 0-70-31-70-70v-460c0-38 31-70 70-70h860c39 0 70 32 70 70v460c0 39-31 70-70 70z m-380-100h100v-100h-100v100z m150-150v-100h-100v100h100z m-300 150h100v-100h-100v100z m150-150v-100h-100v100h100z m-300 150h100v-100h-100v100z m150-150v-100h-100v100h100z m-300 150h100v-100h-100v100z m150-150v-100h-100v100h100z m-50-250h-100v100h100v-100z m550 0h-500v100h500v-100z m150 0h-100v100h100v-100z m-150 150v100h100v-100h-100z m150 150h-200v100h200v-100z" horiz-adv-x="1000" />

<glyph glyph-name="lab-flask" unicode="&#xe8b6;" d="M822 100c-103 255-222 323-222 450v150h25c14 0 25 11 25 25v50c0 14-11 25-25 25h-250c-14 0-25-11-25-25v-50c0-14 11-25 25-25h25v-150c0-127-119-195-222-450-32-81-116-200 322-200s354 119 322 200z m-81-88c-35-10-105-22-241-22s-206 12-241 23c-12 3-17 18-13 31 11 33 32 91 71 156 95 158 193-25 275-25 82 0 59 78 91 25 39-65 60-123 71-156 4-13-1-28-13-32z" horiz-adv-x="1000" />

<glyph glyph-name="landline" unicode="&#xe8b7;" d="M245 838c-70 13-139-32-153-102-56-272-56-499 0-772 12-62 67-104 127-104 9 0 18 1 26 2 71 14 117 82 102 152-48 242-48 430 0 672 15 70-31 138-102 152z m605-88h-428c4-23 4-48-1-72-47-236-47-420 0-656 5-25 5-49 1-72h428c55 0 100 45 100 100v600c0 55-45 100-100 100z m-250-625c-41 0-75 34-75 75s34 75 75 75 75-34 75-75-34-75-75-75z m250 275h-350v200h350v-200z" horiz-adv-x="1000" />

<glyph glyph-name="language" unicode="&#xe8b8;" d="M988 305c-31 85-119 136-233 136-5 0-9 0-13 0l-1 103c0 0 170 29 176 30s7 6 5 12c-1 5-8 44-9 48-1 7-5 7-10 6-5-1-163-23-163-23s0 98 0 104c0 6-4 8-10 8-6-1-46-1-51-1-6 0-9-3-9-8 1-5 2-115 2-115s-153-26-157-27c-4-1-9-3-8-7 1-5 10-55 11-59 1-4 3-6 9-5 6 1 146 25 146 25l2-101c-54-14-90-41-113-65-38-40-60-94-60-148 0-80 49-127 116-135 158-19 256 153 289 236 55-76 13-218-105-299-2-2-5-7-2-11 4-4 28-33 31-38 4-4 11-2 13-1 126 87 183 226 144 335z m-370-160c-48 6-47 46-47 73 0 38 17 79 44 108 17 17 38 31 61 40l5-214c-20-7-40-9-63-7z m122 28l2 205c4 0 8 1 13 1 38 0 74-7 94-18 19-11-51-136-109-188z m-448 383c-1 5-5 7-10 7h-97c-5 0-8-2-10-7-20-65-174-549-175-552-1-2 0-4 4-4h86c4 0 5 2 6 4 1 3 50 166 50 166h175c0 0 50-163 50-166 1-2 2-4 6-4h87c3 0 4 2 3 4-1 3-154 487-175 552z m-131-316l73 263 72-263h-145z" horiz-adv-x="1000" />

<glyph glyph-name="laptop" unicode="&#xe8b9;" d="M988 69c-13 18-88 131-88 131v450c0 55-45 100-100 100h-600c-55 0-100-45-100-100v-450c0 0-75-113-88-131-12-19-12-30-12-44v-25c0-25 25-50 50-50h900c25 0 50 25 50 50v25c0 14 0 25-12 44z m-638-19l30 50h240l30-50h-300z m450 200h-600v400h600v-400z" horiz-adv-x="1000" />

<glyph glyph-name="layers" unicode="&#xe8ba;" d="M462 270c23-16 53-16 75 0l455 264c12 8 10 26-3 32l-460 177c-18 9-40 9-58 0l-461-177c-13-6-14-24-2-32l454-264z m527 40l-124 61-286-166c-24-16-51-24-79-24s-56 8-79 24l-286 166-125-61c-13-7-14-25-2-33l454-315c23-16 53-16 75 0l455 315c12 8 10 26-3 33z" horiz-adv-x="1000" />

<glyph glyph-name="leaf" unicode="&#xe8bb;" d="M951 671c-218-128-202-391-355-509-114-89-276-44-370-6 0 0-64-80-109-187-15-36-82 4-71 34 149 385 656 576 656 576s-358 15-596-297c-7 72-17 264 168 383 250 160 728 35 677 6z" horiz-adv-x="1000" />

<glyph glyph-name="level-down" unicode="&#xe8bc;" d="M50 250v350h150v-300h500v150l250-225-250-225v150h-550c-55 0-100 45-100 100z" horiz-adv-x="1000" />

<glyph glyph-name="level-up" unicode="&#xe8bd;" d="M950 400v-350h-150v300h-500v-150l-250 225 250 225v-150h550c55 0 100-45 100-100z" horiz-adv-x="1000" />

<glyph glyph-name="lifebuoy" unicode="&#xe8be;" d="M839 689c-187 188-491 188-678 0-188-187-188-491 0-678 187-188 491-188 679 0 187 187 187 491-1 678z m-502-502c-89 90-89 236 0 326 90 89 236 89 326 0 90-90 90-236 0-326-90-89-236-89-326 0z m430 19c49 90 49 198 0 288l90 48c64-119 64-264 0-384l-90 48z m-75 501l-48-90c-90 49-198 49-288 0l-48 90c120 64 264 64 384 0z m-548-165l89-48c-49-90-49-198 0-288l-90-48c-64 120-64 264 1 384z m164-549l48 90c90-49 198-49 288 0l48-90c-120-64-264-64-384 0z" horiz-adv-x="1000" />

<glyph glyph-name="light-bulb" unicode="&#xe8bf;" d="M359-109c40-25 85-42 141-41 56-1 101 16 141 41l-1 109h-280l-1-109z m276 159c0 218 231 292 214 509-11 137-104 291-349 291-245 0-338-154-349-291-17-217 214-291 214-509h270z m-385 500c10 130 106 200 250 200 144 0 233-69 243-198 6-72-35-119-90-197-41-57-80-117-103-205h-100c-22 88-62 148-103 205-55 78-103 124-97 195z" horiz-adv-x="1000" />

<glyph glyph-name="light-down" unicode="&#xe8c0;" d="M500 510c-89 0-160-71-160-160 0-88 71-160 160-160 89 0 160 72 160 160 0 89-71 160-160 160z m0-262c-57 0-103 46-103 102 0 57 46 103 103 103 57 0 103-46 103-103-1-56-46-102-103-102z m250 352c-16 16-44 12-64-7-19-20-22-48-7-64s44-12 64 7c20 20 23 48 7 64z m-493-436c-19-20-23-48-7-64s44-12 64 7c19 20 22 48 7 64s-44 12-64-7z m-7 436c-16-16-12-44 7-64 20-19 48-22 64-7s12 44-7 64c-20 19-48 23-64 7z m436-493c20-19 48-23 64-7s13 44-7 64c-20 19-48 22-64 7s-12-44 7-64z m-186 493c22 0 40 22 40 50 0 28-18 50-40 50-22 0-40-22-40-50 0-28 18-50 40-50z m0-600c22 0 40 22 40 50 0 28-18 50-40 50-22 0-40-22-40-50 0-28 18-50 40-50z m-250 350c0 22-22 40-50 40-28 0-50-18-50-40 0-22 22-40 50-40 28 0 50 18 50 40z m600 0c0 22-22 40-50 40-28 0-50-18-50-40 0-22 22-40 50-40 28 0 50 18 50 40z" horiz-adv-x="1000" />

<glyph glyph-name="light-up" unicode="&#xe8c1;" d="M950 390c-9 0-40 0-49 0-28 0-50-18-50-40 0-22 22-40 50-40 9 0 40 0 49 0 28 0 50 18 50 40 0 22-22 40-50 40z m-450 235c-153 0-275-122-275-275 0-152 122-275 275-275 153 0 275 123 275 275 0 153-123 275-275 275z m0-475c-111 0-200 90-200 200 0 111 89 200 200 200 110 0 200-89 200-200 0-110-90-200-200-200z m-350 200c0 22-22 40-50 40-9 0-41 0-50 0-28 0-50-18-50-40 0-22 22-40 50-40 9 0 41 0 50 0 28 0 50 18 50 40z m350 350c22 0 40 22 40 50 0 9 0 41 0 50 0 28-18 50-40 50-22 0-40-22-40-50 0-9 0-41 0-50 0-28 18-50 40-50z m0-700c-22 0-40-22-40-50 0-9 0-41 0-50 0-28 18-50 40-50 22 0 40 22 40 50 0 9 0 41 0 50 0 28-18 50-40 50z m368 662c20 19 23 48 7 63s-44 13-63-7c-6-5-30-29-35-35-20-19-23-48-7-63s44-13 63 7c6 5 30 29 35 35z m-701-589c-6-5-30-29-35-35-20-19-23-48-7-63s44-13 63 7c6 5 30 29 35 35 20 19 23 48 7 64s-44 12-63-8z m21 645c-19 20-48 23-63 7s-13-44 7-63c5-6 29-30 35-35 19-20 48-23 63-7s13 44-7 63c-5 6-29 30-35 35z m589-701c5-6 29-30 35-35 19-20 48-23 63-7 16 15 13 44-7 63-5 6-29 30-35 35-19 20-48 23-63 7s-13-44 7-63z" horiz-adv-x="1000" />

<glyph glyph-name="line-graph" unicode="&#xe8c2;" d="M35 284l68-17 51 80-98 24c-24 6-49-8-55-33-6-24 9-48 34-54z m889-14l-223-200-262 203c-5 4-11 6-17 8l-35 8-52-80 55-14 285-220c9-7 18-10 28-10 11 0 22 4 31 12l251 226c19 17 20 46 3 64-17 19-45 20-64 3z m-490 221l245-156c20-14 48-8 62 12l251 362c14 21 9 49-12 63-20 14-49 9-63-11l-226-327-246 158c-10 6-23 9-34 6-12-3-23-10-29-20l-375-588c-13-22-7-50 14-63 8-5 16-7 24-7 16 0 30 7 39 21l350 550z" horiz-adv-x="1000" />

<glyph glyph-name="link" unicode="&#xe8c3;" d="M393 115l-41-40c-35-34-92-34-127 0-17 17-26 39-26 63 0 24 9 46 26 62l149 148c31 31 89 76 132 34 19-19 50-19 70 0 19 20 19 51-1 70-71 72-178 58-271-33l-149-148c-35-36-55-83-55-133 0-50 20-98 55-133 37-37 86-55 134-55 48 0 97 18 133 55l41 40c19 19 19 51 0 70-19 20-51 20-70 0z m452 575c-78 76-186 81-257 10l-51-51c-19-19-19-50 0-70 19-19 51-19 70 0l50 50c37 37 86 22 118-10 17-16 26-39 26-62s-9-46-26-63l-159-157c-73-73-107-39-122-24-19 19-50 19-70-1-19-19-19-50 1-70 33-33 71-49 111-49 49 0 101 24 150 73l159 158c35 35 55 83 55 133 0 50-20 97-55 133z" horiz-adv-x="1000" />

<glyph glyph-name="list" unicode="&#xe8c4;" d="M720 400h-290c-28 0-30-22-30-50s2-50 30-50h290c28 0 30 22 30 50s-2 50-30 50z m100-250h-390c-28 0-30-22-30-50s2-50 30-50h390c28 0 30 22 30 50s-2 50-30 50z m-390 400h390c28 0 30 22 30 50s-2 50-30 50h-390c-28 0-30-22-30-50s2-50 30-50z m-160-150h-90c-28 0-30-22-30-50s2-50 30-50h90c28 0 30 22 30 50s-2 50-30 50z m0-250h-90c-28 0-30-22-30-50s2-50 30-50h90c28 0 30 22 30 50s-2 50-30 50z m0 500h-90c-28 0-30-22-30-50s2-50 30-50h90c28 0 30 22 30 50s-2 50-30 50z" horiz-adv-x="1000" />

<glyph glyph-name="location-pin" unicode="&#xe8c5;" d="M500 750c-138 0-250-112-250-250 0-239 250-550 250-550s250 311 250 550c0 138-112 250-250 250z m0-388c-75 0-135 60-135 135s60 135 135 135c75 0 135-60 135-135s-60-135-135-135z" horiz-adv-x="1000" />

<glyph glyph-name="location" unicode="&#xe8c6;" d="M968-55l-68 205h-75l42-200h-734l42 200h-75l-68-205c-18-52 13-95 68-95h800c55 0 86 43 68 95z m-218 655c0 138-112 250-250 250s-250-112-250-250c0-239 250-500 250-500s250 261 250 500z m-385-3c0 75 60 135 135 135s135-60 135-135c0-75-60-135-135-135s-135 60-135 135z" horiz-adv-x="1000" />

<glyph glyph-name="lock-open" unicode="&#xe8c7;" d="M790 450h-90v120c0 145-67 230-200 230-133 0-200-85-200-230v-20h100v40c0 72 40 110 100 110 60 0 100-38 100-110v-140h-400c-28 0-50-32-50-60v-390c0-27 21-57 48-65l59-20c27-8 71-15 98-15h290c28 0 71 7 98 15l59 20c27 8 48 38 48 65v390c0 28-32 60-60 60z" horiz-adv-x="1000" />

<glyph glyph-name="lock" unicode="&#xe8c8;" d="M790 450h-90v120c0 145-67 230-200 230-133 0-200-85-200-230v-120h-100c-28 0-50-32-50-60v-390c0-27 21-57 48-65l59-20c27-8 71-15 98-15h290c28 0 71 7 98 15l59 20c27 8 48 38 48 65v390c0 28-32 60-60 60z m-190 0h-200v140c0 72 40 110 100 110 60 0 100-38 100-110v-140z" horiz-adv-x="1000" />

<glyph glyph-name="log-out" unicode="&#xe8c9;" d="M950 350l-300 250v-150h-350v-200h350v-150l300 250z m-800 350h400v100h-400c-55 0-100-45-100-100v-700c0-55 45-100 100-100h400v100h-400v700z" horiz-adv-x="1000" />

<glyph glyph-name="login" unicode="&#xe8ca;" d="M700 350l-300 250v-150h-350v-200h350v-150l300 250z m150-350h-400v-100h400c55 0 100 45 100 100v700c0 55-45 100-100 100h-400v-100h400v-700z" horiz-adv-x="1000" />

<glyph glyph-name="loop" unicode="&#xe8cb;" d="M1000 500v-350c0-55-45-100-100-100h-800c-55 0-100 45-100 100v350c0 55 45 100 100 100h350v100l200-175-200-175v100h-300v-250h700v250h-150v150h200c55 0 100-45 100-100z" horiz-adv-x="1000" />

<glyph glyph-name="magnet" unicode="&#xe8cc;" d="M608-43c-1-16 11-29 28-31l199-16c16-1 31 10 32 26l16 164-259 21-16-164z m-491 143l16-164c1-16 16-27 32-26l200 16c16 2 28 15 27 31l-16 164-259-21z m-25 271l16-170 259 22-16 169c-1 4-1 8-1 13 0 77 67 141 150 141s150-64 150-141c0-5 0-9-1-13l-16-169 259-22 17 170c1 11 1 22 1 34 0 212-184 385-410 385s-410-173-410-385c0-12 1-23 2-34z" horiz-adv-x="1000" />

<glyph glyph-name="magnifying-glass" unicode="&#xe8cd;" d="M877 77l-189 189c29 46 45 101 45 160 0 171-148 319-319 319-171 0-309-138-309-309 0-171 148-319 319-319 57 0 110 15 156 42l190-190c18-19 48-19 67 0l47 47c19 19 12 42-7 61z m-677 359c0 118 96 214 214 214 119 0 224-106 224-224 0-118-96-214-214-214-118 0-224 105-224 224z" horiz-adv-x="1000" />

<glyph glyph-name="mail" unicode="&#xe8ce;" d="M79 586c24-13 362-195 375-202 12-6 29-10 45-10 16 0 33 4 45 10s351 189 375 202c25 13 48 64 3 64h-846c-45 0-22-51 3-64z m852-110c-28-15-370-193-387-202s-29-10-45-10-28 1-45 10-357 187-385 202c-19 10-19-2-19-11s0-365 0-365c0-21 28-50 50-50h800c22 0 50 29 50 50 0 0 0 355 0 365s0 21-19 11z" horiz-adv-x="1000" />

<glyph glyph-name="man" unicode="&#xe8cf;" d="M500 650c55 0 100 45 100 100 0 55-45 100-100 100s-100-45-100-100c0-55 45-100 100-100z m299-379c-19 89-53 234-102 295-48 58-144 61-197 61h0c-53 0-149-3-197-61-49-61-83-206-102-295-10-49 58-67 76-18 26 74 47 136 92 187 23-145-64-398-69-540 0-28 22-50 50-50 21 0 40 13 47 32 23 79 103 300 103 300l0 0 0 0c0 0 81-221 103-300 8-19 26-32 47-32 28 0 50 22 50 50-5 142-92 395-69 540 45-51 66-113 92-187 18-49 87-31 76 18z" horiz-adv-x="1000" />

<glyph glyph-name="map" unicode="&#xe8d0;" d="M972 664l-300 150c-14 7-30 7-44 0l-282-141-280 94c-15 5-32 2-45-7-13-9-21-25-21-41v-650c0-19 11-36 28-44l300-150c7-4 14-6 22-6s15 2 22 6l282 140 280-93c15-5 32-3 45 7 13 9 21 24 21 40v650c0 19-11 37-28 45z m-572-76l200 101v-589l-200-100v588z m-300 62l200-67v-583l-200 100v550z m800-611l-200 66v584l200-101v-549z" horiz-adv-x="1000" />

<glyph glyph-name="mask" unicode="&#xe8d1;" d="M979 558c-2 24-23 40-46 37-87-14-291-95-433-95-142 0-346 81-433 95-23 3-44-13-46-37-7-77-21-280-21-311 0-42 174-137 300-137 123 0 148 137 200 137s77-137 200-137c126 0 300 95 300 137 0 31-14 234-21 311z m-596-244c-18-16-67-53-127-42-59 12-95 66-108 88-3 5-2 12 2 16 18 16 67 54 127 42 60-12 96-66 108-88 3-5 2-12-2-16z m469 46c-12-22-49-76-108-88-60-11-109 26-127 42-4 4-5 11-2 16 12 22 48 76 108 88 60 12 109-26 127-42 4-4 5-11 2-16z" horiz-adv-x="1000" />

<glyph glyph-name="medal" unicode="&#xe8d2;" d="M500 350c26 0 51-5 75-13l-304 456c-3 4-7 7-13 7h-178c-5 0-9-6-6-11l312-468c34 18 73 29 114 29z m420 450h-178c-5 0-10-3-13-7l-191-287 100-150 288 433c3 5 0 11-6 11z m-420-500c-110 0-200-90-200-200 0-110 90-200 200-200s200 90 200 200c0 110-90 200-200 200z m106-206c3-3 2-8-1-10-4-3-5-8-3-12 2-3 1-8-3-10s-6-6-5-10-1-9-5-9-8-5-7-10-2-8-7-8c-4 1-8-3-9-7s-4-8-8-7-9-1-10-5-6-7-10-5c-4 2-9 1-11-3s-7-5-10-2-9 2-12-2-7-3-10 0-8 4-12 2-8-2-10 2-7 5-11 3c-4-2-8 0-10 5s-5 7-10 5-8 2-8 7-4 8-9 8c-4-1-8 3-7 7s-2 9-7 10-7 5-5 9-1 9-5 10-5 7-3 10c2 4 1 9-2 12-4 2-5 7-2 10 4 3 4 9 0 12s-2 8 2 10 4 8 2 12c-2 4-1 8 3 10s6 6 5 10 1 9 5 9 8 6 7 10 3 8 7 8c5 0 8 3 9 7s4 8 8 7 9 1 10 5 6 7 10 5c4-2 9-1 11 3s7 5 10 2 9-2 12 2 7 3 10 0 8-4 12-2 8 2 10-2 7-5 11-3c4 2 9 0 10-5s6-6 10-5 8-2 8-7 5-7 9-7c5 0 8-4 7-8s3-9 7-10 7-4 5-9 1-9 5-10 5-6 3-10c-2-4-1-9 3-12s4-7 1-10-3-9 0-12z" horiz-adv-x="1000" />

<glyph glyph-name="megaphone" unicode="&#xe8d3;" d="M861 499c-79 184-206 324-271 298-109-45 65-258-472-477-47-19-58-94-39-139 19-45 83-90 129-72 8 4 38 13 38 13 33-44 68-18 80-46 15-34 47-108 58-133 11-25 36-49 54-42 18 7 79 30 102 39 24 9 29 30 22 46-8 18-39 23-48 44-9 21-39 87-47 108-12 28 13 52 48 55 245 26 291-125 374-92 64 27 51 213-28 398z m-27-299c-15-6-111 70-172 213-62 143-54 274-40 280 14 6 108-86 170-229 61-143 56-258 42-264z" horiz-adv-x="1000" />

<glyph glyph-name="menu" unicode="&#xe8d4;" d="M820 400h-640c-28 0-30-22-30-50 0-28 2-50 30-50h640c28 0 30 22 30 50 0 28-2 50-30 50z m0-200h-640c-28 0-30-22-30-50 0-28 2-50 30-50h640c28 0 30 22 30 50 0 28-2 50-30 50z m-640 300h640c28 0 30 22 30 50 0 28-2 50-30 50h-640c-28 0-30-22-30-50 0-28 2-50 30-50z" horiz-adv-x="1000" />

<glyph glyph-name="merge" unicode="&#xe8d5;" d="M895-35l-50-115c-157 68-275 158-345 264-70-106-188-196-345-264l-49 115c151 66 322 180 322 385v150h-153l225 350 225-350h-152v-150c0-205 170-319 322-385z" horiz-adv-x="1000" />

<glyph glyph-name="message" unicode="&#xe8d6;" d="M900 550v-350c0-55-45-100-100-100h-200v-150l-200 150h-200c-55 0-100 45-100 100v350c0 55 45 100 100 100h600c55 0 100-45 100-100z" horiz-adv-x="1000" />

<glyph glyph-name="mic" unicode="&#xe8d7;" d="M820 468v-138c0-112-82-231-270-248v-132h130c11 0 20-9 20-20v-60c0-11-9-20-20-20h-360c-11 0-20 9-20 20v60c0 11 9 20 20 20h130v132c-188 17-270 136-270 248v138c0 11 9 20 20 20h30c11 0 20-9 20-20v-138c0-67 53-180 250-180 197 0 250 113 250 180v138c0 11 9 20 20 20h30c11 0 20-9 20-20z m-320-218c117 0 150 48 150 80v158h-300v-158c0-32 33-80 150-80z m150 520c0 32-33 80-150 80-117 0-150-48-150-80v-212h300v212z" horiz-adv-x="1000" />

<glyph glyph-name="minus" unicode="&#xe8d8;" d="M800 350c0-28-2-50-30-50h-540c-27 0-30 22-30 50 0 28 3 50 30 50h540c28 0 30-22 30-50z" horiz-adv-x="1000" />

<glyph glyph-name="mobile" unicode="&#xe8d9;" d="M700 850h-400c-55 0-100-45-100-100v-800c0-55 45-100 100-100h400c55 0 100 45 100 100v800c0 55-45 100-100 100z m-200-950c-34 0-62 22-62 50s28 50 62 50 63-22 63-50-28-50-63-50z m200 150h-400v700h400v-700z" horiz-adv-x="1000" />

<glyph glyph-name="modern-mic" unicode="&#xe8da;" d="M61 306c-11-8-14-24-8-35l65-112c7-12 22-16 34-11l198 96v-344h100v393l204 98-131 227-462-312z m862 392c-56 97-180 130-277 74-46-26-76-68-90-114l148-258c48-10 99-5 145 21 97 56 130 180 74 277z" horiz-adv-x="1000" />

<glyph glyph-name="moon" unicode="&#xe8db;" d="M686 760c34-19 67-43 96-72 171-172 171-449 0-620-171-171-448-171-619 0-30 30-54 62-73 96 167-93 382-69 524 73 141 141 165 356 72 523z" horiz-adv-x="1000" />

<glyph glyph-name="mouse-pointer" unicode="&#xe8dc;" d="M543 250l126-304-110-46-127 303-182-184v776l547-544-254-1z" horiz-adv-x="1000" />

<glyph glyph-name="mouse" unicode="&#xe8dd;" d="M770 130l-131 377c-36 103-149 161-255 132l-99 192c-9 17-30 24-46 15-17-9-24-31-15-48l97-187c-77-51-117-148-92-239l107-385c30-108 154-163 279-125 123 43 192 162 155 268z m-325 274c-37-12-76 9-87 46-12 37 8 77 45 89 36 12 75-8 87-46s-9-77-45-89z" horiz-adv-x="1000" />

<glyph glyph-name="music" unicode="&#xe8de;" d="M800 800h-600c-28 0-50-22-50-50v-800c0-28 22-50 50-50h600c28 0 50 22 50 50v800c0 28-22 50-50 50z m-160-526c-9-19-19-20-15 0 11 52 4 164-75 176v-237c0-49-22-91-82-111-58-18-122 1-137 43-16 41 18 92 75 113 32 11 69 14 94 5v337h50c0-118 203-92 90-326z" horiz-adv-x="1000" />

<glyph glyph-name="network" unicode="&#xe8df;" d="M264 504c10 0 19-1 29-4 34 39 72 74 114 105-2 7-3 15-3 23 0 11 2 21 5 31-46 33-97 61-150 83-51-32-95-72-130-120 26-46 57-88 92-127 13 6 28 9 43 9z m-98-98c0 14 3 27 8 39-32 35-60 72-85 112-31-63-49-133-49-207 0-86 24-166 65-235 14 82 42 161 81 232-13 17-20 37-20 59z m336 320c26 0 49-10 67-27 51 22 104 39 160 50-67 39-145 61-229 61-57 0-111-10-162-29 40-20 78-43 114-69 15 9 32 14 50 14z m146-461c6 12 15 24 26 32-29 89-75 171-134 241-12-5-25-8-38-8-21 0-41 7-57 18-36-27-68-57-98-90 9-15 15-33 15-52 0-10-2-20-5-29 86-57 185-97 291-112z m127-133c1-18 2-37 2-56 0-33-2-65-6-98 78 57 137 138 167 232-35-8-71-14-109-18-8-27-28-48-54-60z m-150 67c-113 19-219 62-310 124-15-9-33-14-51-14-7 0-14 0-20 2-44-83-72-176-80-275 43-47 97-84 157-110 74 115 179 210 304 273z m184 492c-74-7-144-26-210-53 0-4 1-7 1-10 0-16-4-30-10-43 65-77 116-167 148-265 40-1 74-25 89-60 44 5 87 13 128 26 3 21 5 42 5 64 0 135-58 257-151 341z m-134-544c-118-55-216-140-287-243 36-9 73-14 112-14 69 0 135 15 194 43 10 46 15 94 15 143 0 18-1 36-3 53-11 4-22 10-31 18z" horiz-adv-x="1000" />

<glyph glyph-name="new-message" unicode="&#xe8e0;" d="M909 759c-55 55-104 39-104 39l-432-432-73-216 216 73 432 432c0 0 16 49-39 104z m-379-489l-23-24-74-25c-5 12-12 24-25 37-13 13-25 20-37 25l25 74 24 23c0 0 39 5 77-33 38-38 33-77 33-77z m270-270h-650v650h250l100 100h-350c-55 0-100-45-100-100v-650c0-55 45-100 100-100h650c55 0 100 45 100 100v350l-100-100v-250z" horiz-adv-x="1000" />

<glyph glyph-name="new" unicode="&#xe8e1;" d="M935 233l-87 77c-25 22-25 58 0 81l87 77c25 22 18 43-15 46l-115 11c-33 3-51 31-39 63l60 169c12 32-2 43-30 26l-136-84c-28-17-65-8-81 22l-49 87c-16 29-44 29-60 0l-46-79c-17-29-55-41-85-27l-80 36c-31 14-54-2-52-36l4-80c2-34-23-69-55-77l-77-21c-33-9-38-34-13-56l86-77c25-23 25-59 0-81l-86-77c-25-22-19-44 14-48l105-13c33-4 51-33 41-65l-54-163c-10-32 5-45 34-28l123 71c29 17 67 8 86-20l51-77c19-28 47-27 62 3l45 87c16 30 53 42 83 27l86-43c30-15 53 0 51 34l-4 81c-2 34 23 68 55 77l77 21c33 8 39 34 14 56z m-385-83h-100v100h100v-100z m0 150h-100v250h100v-250z" horiz-adv-x="1000" />

<glyph glyph-name="news" unicode="&#xe8e2;" d="M700 600h-200v-100h200v100z m0-150h-200v-50h200v50z m-250 150h-150v-200h150v200z m0-300h250v50h-250v-50z m150-100h100v50h-100v-50z m100-50h-400v-50h400v50z m-150 100h-250v-50h250v50z m-150 100h-100v-50h100v50z m450 450h-700c-28 0-50-22-50-50v-800c0-28 22-50 50-50h700c28 0 50 22 50 50v800c0 28-22 50-50 50z m-50-800h-600v700h600v-700z" horiz-adv-x="1000" />

<glyph glyph-name="newsletter" unicode="&#xe8e3;" d="M900 700h-800c-28 0-50-22-50-50v-600c0-28 22-50 50-50h800c28 0 50 22 50 50v600c0 28-22 50-50 50z m-700-350h300v-50h-300v50z m400-200h-400v50h400v-50z m250 300h-150v150h150v-150z" horiz-adv-x="1000" />

<glyph glyph-name="note" unicode="&#xe8e4;" d="M749 378c-22-33-33-19-26 0 16 50 17 227-123 249l0-577c0-83-87-200-250-200-83 0-150 43-150 125 0 106 96 170 200 170 66 0 100-20 100-20v725h100c0-134 299-237 149-472z" horiz-adv-x="1000" />

<glyph glyph-name="notification" unicode="&#xe8e5;" d="M750 431v-431h-600v600h431c-4 16-6 33-6 50s2 34 6 50h-431c-55 0-100-45-100-100v-600c0-55 45-100 100-100h600c55 0 100 45 100 100v431c-16-4-33-6-50-6s-34 2-50 6z m50 369c-83 0-150-67-150-150s67-150 150-150 150 67 150 150-67 150-150 150z" horiz-adv-x="1000" />

<glyph glyph-name="notifications-off" unicode="&#xe8e6;" d="M940-20c10-10 10-25 0-35l-35-35c-10-10-25-10-35 0l-810 810c-10 10-10 25 0 35l35 35c10 10 25 10 35 0l810-810z m-140 520c85 0 150 65 150 150 0 85-65 150-150 150s-150-65-150-150c0-85 65-150 150-150z m-50-70v-190l100-100v290c-15-5-35-5-50-5s-35 0-50 5z m-170 170c-5 15-5 35-5 50 0 15 0 35 5 50h-290l100-100h190z m-330-500v360l-100 100v-460c0-55 45-100 100-100h460l-100 100h-360z" horiz-adv-x="1000" />

<glyph glyph-name="old-mobile" unicode="&#xe8e7;" d="M680 700h-330v150h-100v-930c0-39 31-70 70-70h360c39 0 70 31 70 70v710c0 39-31 70-70 70z m-280-600c-35 0-62 22-62 50s27 50 62 50 63-22 63-50-28-50-63-50z m63-100c0-28-28-50-63-50s-62 22-62 50 27 50 62 50 63-22 63-50z m-113 300v300h300v-300h-300z m250-200c-35 0-62 22-62 50s27 50 62 50 63-22 63-50-28-50-63-50z m63-100c0-28-28-50-63-50s-62 22-62 50 27 50 62 50 63-22 63-50z" horiz-adv-x="1000" />

<glyph glyph-name="old-phone" unicode="&#xe8e8;" d="M863 237c-5 34-31 60-64 68-129 30-161 104-166 186-23 4-64 9-133 9s-110-5-132-9c-6-82-38-156-167-186-33-8-59-34-64-68l-25-172c-8-60 36-115 98-115h580c62 0 106 55 98 115l-25 172z m-363-162c-70 0-126 56-126 125s56 125 126 125 126-56 126-125-56-125-126-125z m498 475c-2 75-193 200-498 200-305 0-496-125-497-200s1-173 126-156c147 19 138 70 138 144 0 51 120 63 233 63s233-12 233-64c0-73-9-124 138-143 125-17 128 81 127 156z" horiz-adv-x="1000" />

<glyph glyph-name="open-book" unicode="&#xe8e9;" d="M530 590l22-68c19 15 42 30 72 39 30 10 56 15 79 19l-21 66c-24-4-50-9-79-19-29-9-53-22-73-37z m46-143l22-68c19 16 42 30 73 40 29 9 55 15 79 18l-22 66c-24-4-50-9-79-18-29-10-53-23-73-38z m47-142l22-69c18 16 42 30 72 40 29 10 55 15 79 18l-21 66c-24-3-51-9-79-18-29-10-53-23-73-37z m-354-109l22-66c21 11 45 22 75 32 30 10 57 12 81 10l-22 69c-25-1-52-4-81-13-29-10-53-21-75-32z m-92 286l21-67c21 12 45 23 75 32 30 10 57 12 81 10l-22 69c-25 0-52-3-81-13-29-9-53-20-74-31z m46-143l22-66c20 11 45 22 74 32 30 9 58 12 82 10l-22 68c-25 0-52-3-81-13-29-9-54-20-75-31z m330 441c-86-28-131-88-152-128-42 20-113 41-199 13-126-41-199-131-199-131l205-629c7-20 33-24 44-8 25 36 73 83 163 113 86 27 148-3 183-29 13-11 33-3 38 13 12 41 45 102 130 130 90 29 157 19 198 5 19-7 38 12 31 31l-204 630c0 0-112 31-238-10z m-5-693c-41 12-95 18-157-2-63-20-107-47-135-70l-163 499c18 18 60 52 133 76 70 23 127 3 164-19l158-484z m344 135c-36 1-88-3-150-23-62-20-103-56-129-90l-157 483c18 40 52 90 122 112 73 24 127 21 152 17l162-499z" horiz-adv-x="1000" />

<glyph glyph-name="palette" unicode="&#xe8ea;" d="M787 720c-176 59-353 48-536-64-143-87-236-304-205-459 36-184 217-300 462-233 264 73 327 228 319 267-8 39-133 83-86 175 60 116 157 57 199 81 43 24 27 172-153 233z m-182-536c-40-11-81 13-92 53-11 41 12 82 52 93 40 11 81-13 92-53 11-40-12-82-52-93z" horiz-adv-x="1000" />

<glyph glyph-name="paper-plane" unicode="&#xe8eb;" d="M932 718c-17-6-866-305-883-311-14-5-17-17 0-24 20-8 190-76 190-76l0 0 112-45c0 0 542 398 549 404 8 5 16-5 11-11-6-6-394-426-394-426v0l-22-25 30-16 0 0c0 0 232-125 249-134 14-8 33-1 37 17 5 21 143 613 146 626 4 17-8 27-25 21z m-582-726c0-12 7-16 17-7 12 11 142 128 142 128l-159 82v-203z" horiz-adv-x="1000" />

<glyph glyph-name="pencil" unicode="&#xe8ec;" d="M735 717c-95 69-163 67-188 63-7-1-13-5-18-11l-231-319-113-156c-14-19-22-42-23-65l-15-281c-1-21 19-35 38-28l263 101c22 8 41 23 55 42l93 127 251 348c5 6 7 13 5 21-4 26-24 90-117 158z m-286-640l-102-40c-4-1-9 0-11 3-13 17-29 34-54 52-25 18-46 28-66 35-4 2-6 6-6 10l6 109 28 38c0 0 61 8 141-50 80-58 91-119 91-119l-27-38z" horiz-adv-x="1000" />

<glyph glyph-name="phone" unicode="&#xe8ed;" d="M561 289c-79-79-170-155-207-119-51 52-83 97-198 5-114-92-26-153 24-203 58-58 274-3 488 210 213 214 268 430 210 488-50 51-111 138-203 24-92-114-47-146 5-198 36-37-39-128-119-207z" horiz-adv-x="1000" />

<glyph glyph-name="pie-chart" unicode="&#xe8ee;" d="M550 802v-452c0-27-22-50-50-50h-452c25-228 218-405 452-405 251 0 455 204 455 455 0 234-177 427-405 452z m-100 0c-211-23-379-191-402-402h402v402z" horiz-adv-x="1000" />

<glyph glyph-name="pin" unicode="&#xe8ef;" d="M239 86l-106-163 12-53 53 11 105 163c-11 6-22 12-33 19-11 7-21 15-31 23z m445 56c1 2 1 4 2 5 3 6 5 12 7 18 0 1 1 2 1 3 2 7 3 14 5 21 0 0 0 0 0 1 10 58-7 123-46 182l55 86c64-8 119 8 146 49 46 71-10 190-125 265-116 75-246 78-293 7-26-41-18-99 15-154l-55-86c-70 12-136 1-186-32 0 0 0 0 0 0-6-4-12-8-17-13-1 0-2-1-3-2-4-4-9-9-13-13-1-2-3-3-4-4-5-6-10-12-14-19-69-107-10-268 132-361 142-92 313-80 382 26 4 7 8 14 11 21z m-40 498c-45 29-66 75-49 102 18 28 68 26 113-3 44-28 66-74 48-101-18-28-68-26-112 2z" horiz-adv-x="1000" />

<glyph glyph-name="plus" unicode="&#xe8f0;" d="M800 350c0-28-2-50-30-50h-220v-220c0-28-22-30-50-30-28 0-50 2-50 30v220h-220c-27 0-30 22-30 50 0 28 3 50 30 50h220v220c0 28 22 30 50 30 28 0 50-2 50-30v-220h220c28 0 30-22 30-50z" horiz-adv-x="1000" />

<glyph glyph-name="popup" unicode="&#xe8f1;" d="M800 750h-401c-55 0-99-44-99-99v-401c0-55 45-100 100-100h400c55 0 100 45 100 100v400c0 55-45 100-100 100z m0-500h-400v400h400v-400z m-600 100h-100v-300c0-55 45-100 100-100h300v100h-300v300z" horiz-adv-x="1000" />

<glyph glyph-name="power-plug" unicode="&#xe8f2;" d="M0 150v-75c0-14 11-25 25-25h50c14 0 25 11 25 25v75c0 48 40 114 100 139v105c-116-27-200-142-200-244z m603 465l-126-95c-18-13-39-20-60-20h-117c-27 0-50-22-50-50v-200c0-27 23-50 50-50h117c21 0 42-7 60-20l126-95c31-23 68-35 105-35h92v600h-92c-37 0-74-12-105-35z m247-65v-100h150v100h-150z m0-400h150v100h-150v-100z" horiz-adv-x="1000" />

<glyph glyph-name="price-ribbon" unicode="&#xe8f3;" d="M641 317c6 13 23 25 37 27s27 14 28 28c2 14 14 31 27 37 13 6 21 22 18 36-3 14 3 33 14 42 10 10 13 28 6 41-7 12-7 32 0 44 7 13 4 31-6 40-11 10-17 29-14 43 3 14-5 30-18 36-13 6-25 23-27 37-1 14-14 27-28 28-14 2-31 14-37 27-6 13-22 21-36 18-14-3-33 3-42 14-10 10-28 13-40 6s-33-7-45 0c-13 7-31 4-40-6-10-11-29-17-43-14-14 3-30-5-36-18-6-13-22-25-37-27-14-1-27-14-28-28-2-14-14-31-27-37-12-6-21-22-18-36 3-14-3-33-14-42s-13-28-6-41c7-12 7-32 0-44-7-13-4-31 6-40 11-10 17-29 14-43-3-14 6-30 18-36 13-6 25-22 27-37 1-14 14-27 28-28s31-14 37-27c6-12 22-21 36-18 14 3 33-3 42-14 10-10 28-13 41-6 12 7 32 7 44 0s31-4 40 6c10 11 29 17 43 14 14-3 30 6 36 18z m-141 63c-94 0-170 76-170 170 0 94 76 170 170 170s170-76 170-170c0-94-76-170-170-170z m-201-100l-62-353 156 23 139-75 62 351c-30-9-61-13-94-13-75 0-145 25-201 67z m399-3c-15-11-32-21-49-30l-38-211 169 91-82 150z" horiz-adv-x="1000" />

<glyph glyph-name="price-tag" unicode="&#xe8f4;" d="M969 830c-5 15-22 24-38 18-16-5-24-22-19-38 47-134-45-233-116-287l-28 41c-10 14-31 25-48 25l-159-1c-17 1-41-7-55-16l-469-330c-23-16-29-47-13-70l214-306c16-22 41-19 64-4l470 330c13 9 29 30 34 46l50 157c6 16 2 40-7 53l-18 25c95 72 193 200 138 357z m-218-468c-36-26-87-17-112 20-26 36-17 86 20 112 29 20 66 19 93-1-14-8-23-13-25-14-15-7-21-25-14-40 5-11 16-17 27-17 5 0 9 1 13 3 10 4 20 10 31 16 5-30-7-61-33-79z" horiz-adv-x="1000" />

<glyph glyph-name="print" unicode="&#xe8f5;" d="M75 550h850c29 0 24 30 10 35-15 5-172 65-200 65h-35v150h-400v-150h-35c-27 0-185-60-200-65-14-5-18-35 10-35z m875-50h-900c-27 0-50-22-50-50v-250c0-27 23-50 50-50h114l-44-250h760l-44 250h114c28 0 50 23 50 50v250c0 28-22 50-50 50z m-720-500l60 350h420l60-350h-540z" horiz-adv-x="1000" />

<glyph glyph-name="progress-empty" unicode="&#xe8f6;" d="M900 600h-800c-55 0-100-45-100-100v-300c0-55 45-100 100-100h800c55 0 100 45 100 100v300c0 55-45 100-100 100z m0-400h-800v300h800v-300z" horiz-adv-x="1000" />

<glyph glyph-name="progress-full" unicode="&#xe8f7;" d="M900 600h-800c-55 0-100-45-100-100v-300c0-55 45-100 100-100h800c55 0 100 45 100 100v300c0 55-45 100-100 100z m0-400h-800v300h800v-300z m-550 250h-200v-200h200v200z m250 0h-200v-200h200v200z m250 0h-200v-200h200v200z" horiz-adv-x="1000" />

<glyph glyph-name="progress-one" unicode="&#xe8f8;" d="M900 600h-800c-55 0-100-45-100-100v-300c0-55 45-100 100-100h800c55 0 100 45 100 100v300c0 55-45 100-100 100z m0-400h-800v300h800v-300z m-550 250h-200v-200h200v200z" horiz-adv-x="1000" />

<glyph glyph-name="progress-two" unicode="&#xe8f9;" d="M900 600h-800c-55 0-100-45-100-100v-300c0-55 45-100 100-100h800c55 0 100 45 100 100v300c0 55-45 100-100 100z m0-400h-800v300h800v-300z m-550 250h-200v-200h200v200z m250 0h-200v-200h200v200z" horiz-adv-x="1000" />

<glyph glyph-name="publish" unicode="&#xe8fa;" d="M498 440l-248-240h150v-300h200v300h150l-252 240z m402 360h-800c-55 0-100-45-100-100v-600c0-55 45-100 100-100h200v100h-200v450h800v-450h-200v-100h200c55 0 100 45 100 100v600c0 55-45 100-100 100z m-775-162c-21 0-37 16-37 37 0 21 16 38 37 38 21 0 38-17 38-38 0-21-17-37-38-37z m100 0c-21 0-37 16-37 37 0 21 16 38 37 38 21 0 38-17 38-38 0-21-17-37-38-37z m675 12h-600v50h601l-1-50z" horiz-adv-x="1000" />

<glyph glyph-name="quote" unicode="&#xe8fb;" d="M266 680c-81 0-146-67-146-150 0-83 65-150 146-150 146 0 48-290-146-290v-70c347 0 483 660 146 660z m420 0c-81 0-146-67-146-150 0-83 65-150 146-150 146 0 48-290-146-290v-70c347 0 483 660 146 660z" horiz-adv-x="1000" />

<glyph glyph-name="radio" unicode="&#xe8fc;" d="M850 450h-599l449 263-50 87-563-329c-23-13-37-37-37-64v-407c0-55 45-100 100-100h700c55 0 100 45 100 100v350c0 55-45 100-100 100z m-75-450c-41 0-75 34-75 75 0 41 34 75 75 75s75-34 75-75c0-41-34-75-75-75z m75 250h-700v100h700v-100z" horiz-adv-x="1000" />

<glyph glyph-name="remove-user" unicode="&#xe8fd;" d="M800-107c0 113-110 170-216 216-107 46-140 84-140 167 0 49 32 33 46 124 6 37 35 0 40 86 0 34-15 43-15 43s8 50 11 89c3 41-20 128-115 155-17 17-28 44 23 71-112 6-138-53-198-96-50-38-64-98-62-130 4-39 11-89 11-89s-15-9-15-43c5-86 34-49 40-86 14-91 47-75 47-124 0-83-11-111-117-157-107-45-140-119-139-226 0-31-1-43-1-43h800c0 0 0 12 0 43z m0 455l-115 120-53-53 120-115-120-115 53-53 115 120 115-120 53 53-120 115 120 115-53 53-115-120z" horiz-adv-x="1000" />

<glyph glyph-name="reply-all" unicode="&#xe8fe;" d="M361 562v134l-361-323 361-335v139l-211 196 211 189z m250-60v194l-361-323 361-335v218c165 0 265-21 389-240 0 0-18 486-389 486z" horiz-adv-x="1000" />

<glyph glyph-name="reply" unicode="&#xe8ff;" d="M950 16c0 0-111 486-550 486v200l-350-329 350-335v218c238 0 426-21 550-240z" horiz-adv-x="1000" />

<glyph glyph-name="resize-100%" unicode="&#xe900;" d="M205 145l-155-145 100-100 145 155 105-105v300h-300l105-105z m745 555l-100 100-145-155-105 105v-300h300l-105 105 155 145z" horiz-adv-x="1000" />

<glyph glyph-name="resize-full-screen" unicode="&#xe901;" d="M349 301l-146-152-103 122v-321h319l-121 104 151 147-100 100z m232 449l121-104-151-147 100-100 146 152 103-121v320h-319z" horiz-adv-x="1000" />

<glyph glyph-name="retweet" unicode="&#xe902;" d="M250 200v250h100l-175 200-175-200h100v-300c0-55 45-100 100-100h474l-132 150h-292z m208 300l-132 150h474c55 0 100-45 100-100v-300h100l-175-200-175 200h100v250h-292z" horiz-adv-x="1000" />

<glyph glyph-name="rocket" unicode="&#xe903;" d="M597 197c0 0 353 254 313 546 0 6-2 10-5 13-3 3-7 5-13 6-285 40-534-321-534-321-216 26-200-17-299-254-19-45 12-61 46-48 33 13 107 41 107 41l129-133c0 0-27-76-39-110-13-34 3-65 47-46 231 101 273 85 248 306z m50 295c-30 31-30 81 0 111 30 31 79 31 108 0 30-30 30-80 0-111-29-30-78-30-108 0z" horiz-adv-x="1000" />

</font>
</defs>
</svg>
